<?xml version="1.0" standalone="no"?>
<!DOCTYPE svg PUBLIC "-//W3C//DTD SVG 1.1//EN" "http://www.w3.org/Graphics/SVG/1.1/DTD/svg11.dtd" >
<svg xmlns="http://www.w3.org/2000/svg">
<metadata></metadata>
<defs>
<font id="eewitalic" horiz-adv-x="524" >
<font-face units-per-em="1000" ascent="750" descent="-250" />
<missing-glyph horiz-adv-x="235" />
<glyph unicode="fi" horiz-adv-x="476" d="M125 73q-8 -41 -15 -73.5t-14.5 -60.5t-16 -53t-18.5 -51q-5 -12 -14 -12h-41q-5 0 -8 3.5t-1 8.5q11 30 20 56.5t16 52.5t13 54t12 62l67 373h-61q-10 0 -8 11l5 24q3 12 13 13l62 9l6 31q9 47 25 78t43 51q26 19 57.5 27.5t78.5 8.5q28 0 55 -4t47 -12q13 -6 8 -18 l-10 -23q-3 -8 -6.5 -10t-11.5 0q-19 6 -41.5 9.5t-50.5 3.5q-30 0 -51 -6t-36 -19t-24.5 -34t-16.5 -51l-7 -32h233q12 0 10 -11l-91 -471q-2 -8 -10 -8h-48q-8 0 -7 8l82 425h-180z" />
<glyph unicode="fl" horiz-adv-x="526" d="M417 616q-37 16 -81 16q-30 0 -51 -6t-36 -19t-24.5 -34t-16.5 -51l-7 -32h107q9 0 8 -10l-7 -37q-2 -10 -12 -10h-107l-65 -360q-8 -41 -15 -73.5t-14.5 -60.5t-16 -53t-18.5 -51q-5 -12 -14 -12h-41q-5 0 -8 3.5t-1 8.5q11 30 20 56.5t16 52.5t13 54t12 62l67 373h-61 q-10 0 -8 11l5 24q3 12 13 13l62 9l6 31q17 88 63 126.5t135 38.5q24 0 50.5 -4.5t46.5 -12.5l44 8q13 2 10 -12l-104 -540q-5 -28 -5.5 -41.5t4.5 -21.5q5 -6 13 -8t24 -2h32q13 0 10 -13l-5 -27q-3 -12 -16 -12h-38q-29 0 -46.5 4.5t-28.5 15.5q-25 26 -10 101z" />
<glyph unicode="&#xd;" horiz-adv-x="235" />
<glyph unicode=" "  horiz-adv-x="235" />
<glyph unicode="&#x09;" horiz-adv-x="235" />
<glyph unicode="&#xa0;" horiz-adv-x="235" />
<glyph unicode="!" horiz-adv-x="218" d="M77 91q35 0 35 -29q0 -2 -1 -9t-4 -23q-4 -20 -17 -29.5t-33 -9.5h-10q-35 0 -35 29q0 2 1.5 11l3.5 21q8 39 50 39h10zM136 632q3 17 19 17h53q10 0 11 -6t0 -11l-102 -471q-3 -17 -19 -17h-33q-14 0 -11 17z" />
<glyph unicode="&#x22;" horiz-adv-x="295" d="M96 452q-15 0 -12 18l30 197q3 21 22 21h33q11 0 14.5 -4t1.5 -15l-47 -201q-4 -16 -18 -16h-24zM235 452q-15 0 -12 18l30 197q3 21 22 21h33q11 0 14.5 -4t1.5 -15l-47 -201q-4 -16 -18 -16h-24z" />
<glyph unicode="#" horiz-adv-x="671" d="M237 263h136l50 123h-136zM419 200l-75 -183q-7 -17 -24 -17h-37q-18 0 -11 17l75 183h-136l-75 -183q-7 -17 -24 -17h-37q-18 0 -11 17l75 183h-127q-17 0 -9 18l14 32q5 13 23 13h125l50 123h-129q-17 0 -9 18l14 32q5 13 23 13h127l75 183q7 17 23 17h40q17 0 9 -17 l-75 -183h136l75 183q7 17 24 17h38q18 0 10 -17l-75 -183h136q18 0 11 -15l-16 -37q-6 -11 -23 -11h-134l-50 -123h138q18 0 11 -15l-16 -37q-6 -11 -23 -11h-136z" />
<glyph unicode="$" d="M360 647q35 -2 64 -6.5t52 -12.5q10 -3 11.5 -8t-0.5 -13l-8 -25q-3 -9 -9.5 -10.5t-15.5 0.5q-24 7 -51.5 11.5t-53.5 6.5l-46 -233l31 -8q62 -16 86 -43t24 -73q0 -19 -3 -37t-8 -43q-8 -40 -25.5 -67.5t-42.5 -45.5t-58 -27t-73 -12l-17 -88q-3 -15 -17 -15h-18 q-16 0 -13 15l17 87q-42 2 -82 10t-70 21q-8 4 -10 8t1 13l9 23q6 18 23 11q29 -12 65.5 -20t74.5 -10l48 248l-45 12q-54 15 -76.5 39.5t-22.5 69.5q0 16 3.5 38t7.5 41q15 75 64 108.5t136 35.5l16 84q3 15 17 15h18q16 0 13 -15zM371 215q0 16 -3 27.5t-11.5 20.5t-24 16 t-41.5 14l-46 -236q49 6 78 28.5t40 70.5q5 21 6.5 36t1.5 23zM301 591q-102 0 -121 -97q-4 -19 -6 -32.5t-2 -26.5q0 -25 13 -37t48 -22l25 -7z" />
<glyph unicode="%" horiz-adv-x="784" d="M598 644q8 12 24 12h35q8 0 8.5 -5t-4.5 -12l-476 -636q-5 -8 -10.5 -10t-13.5 -2h-35q-17 0 -6 15zM325 473q-10 -54 -24.5 -87t-40.5 -55q-17 -14 -40 -22t-56 -8q-56 0 -80 30q-11 14 -15.5 31.5t-4.5 38.5q0 17 2.5 37.5t7.5 45.5q11 58 27 90.5t39 52.5 q17 14 39 21.5t55 7.5q30 0 49.5 -8t31.5 -22q11 -14 15.5 -31.5t4.5 -35.5q0 -20 -3 -42.5t-7 -43.5zM264 474q5 27 7 44.5t2 34.5q0 29 -12 40.5t-37 11.5q-17 0 -30.5 -6t-24.5 -20t-19 -37.5t-15 -58.5q-5 -23 -7.5 -43t-2.5 -33q0 -32 12 -43.5t37 -11.5q17 0 30.5 5.5 t24.5 19.5t19.5 37.5t15.5 59.5zM709 163q-10 -54 -24.5 -87t-40.5 -55q-17 -14 -40 -22t-56 -8q-56 0 -80 30q-11 14 -15.5 31.5t-4.5 38.5q0 17 2.5 37.5t7.5 45.5q11 58 27 90.5t39 52.5q17 14 39 21.5t55 7.5q30 0 49.5 -8t31.5 -22q11 -14 15.5 -31.5t4.5 -35.5 q0 -20 -3 -42.5t-7 -43.5zM648 164q5 27 7 44.5t2 34.5q0 29 -12 40.5t-37 11.5q-17 0 -30.5 -6t-24.5 -20t-19 -37.5t-15 -58.5q-5 -23 -7.5 -43t-2.5 -33q0 -32 12 -43.5t37 -11.5q17 0 30.5 5.5t24.5 19.5t19.5 37.5t15.5 59.5z" />
<glyph unicode="&#x26;" horiz-adv-x="608" d="M503 223q-18 -61 -40 -104l71 -85q10 -11 -5 -23l-19 -14q-9 -6 -14 -6t-11 8l-57 68q-37 -43 -90 -59.5t-129 -16.5h-11q-84 0 -127.5 34.5t-43.5 104.5q0 18 3 39q12 81 52.5 126t103.5 68l-6 8q-20 28 -30 56t-10 61q0 78 49 123t131 45q75 0 112 -32t37 -89 q0 -78 -41.5 -129.5t-122.5 -93.5l112 -137q5 12 9 25t9 27l25 87q4 10 15 10h42q15 0 11 -13zM219 45q59 0 99 17t68 55l-171 207q-51 -26 -77 -61t-34 -91q-3 -18 -3 -33q1 -47 24 -70.5t83 -23.5h11zM213 489q0 -29 10 -57.5t37 -63.5l14 -18q67 37 94.5 77t27.5 100 q0 36 -20 57t-58 21q-51 0 -78 -32t-27 -84z" />
<glyph unicode="'" horiz-adv-x="156" d="M96 452q-15 0 -12 18l30 197q3 21 22 21h33q11 0 14.5 -4t1.5 -15l-47 -201q-4 -16 -18 -16h-24z" />
<glyph unicode="(" horiz-adv-x="289" d="M284 687q10 12 23 4l20 -12q14 -8 4 -20q-47 -51 -86 -107.5t-66.5 -119t-42.5 -131t-15 -144.5q0 -28 5 -61t14 -66t20.5 -63.5t24.5 -53.5q5 -8 0.5 -12.5t-10.5 -7.5l-17 -8q-10 -5 -14.5 -3.5t-9.5 9.5q-19 31 -34 66t-26 71t-17 72.5t-6 69.5q0 142 63 273.5 t170 243.5z" />
<glyph unicode=")" horiz-adv-x="289" d="M1 -112q-10 -12 -23 -4l-20 12q-14 8 -4 20q47 51 86 107.5t66.5 119t42.5 131t15 144.5q0 28 -5 61t-14 66t-20.5 63.5t-24.5 53.5q-5 8 -0.5 12.5t10.5 7.5l17 8q10 5 14.5 3.5t9.5 -9.5q19 -31 34 -66t26 -71t17 -72.5t6 -69.5q0 -142 -63 -273.5t-170 -243.5z" />
<glyph unicode="*" horiz-adv-x="352" d="M283 730q12 0 12 -9q0 -3 -2 -11l-37 -113l105 52q8 4 12 4q9 0 10 -11q3 -20 4 -27.5t1 -11.5q0 -5 -2.5 -8.5t-11.5 -5.5l-115 -27l68 -81q6 -6 6 -13q0 -10 -12 -17l-32 -18q-10 -5 -14 -5q-8 0 -13 14l-33 100l-73 -100q-5 -6 -8.5 -10t-8.5 -4q-4 0 -12 5l-26 18 q-7 5 -7 12q0 8 13 18l102 86l-108 22q-8 2 -8 9q0 3 3 9l19 35q6 10 13 10q5 0 11 -3l84 -51l8 113q1 11 4.5 15t11.5 4h36z" />
<glyph unicode="+" d="M294 293h173q9 0 11.5 -4t0.5 -11l-7 -37q-2 -10 -7.5 -11.5t-10.5 -1.5h-173l-34 -173q-2 -9 -6 -12t-11 -3h-37q-10 0 -11 5t0 10l34 173h-173q-9 0 -11 3.5t-1 11.5l7 35q2 7 5.5 11t12.5 4h173l34 173q2 9 5.5 12t11.5 3h35q7 0 11 -3t2 -12z" />
<glyph unicode="," horiz-adv-x="213" d="M89 94q21 0 31 -7.5t10 -27.5q0 -15 -4 -35q-4 -17 -10.5 -34.5t-17.5 -37.5q-11 -21 -27.5 -42t-32.5 -36q-9 -9 -18 -2l-16 11q-9 8 2 19q15 15 27 33q14 20 23 39q7 14 -2 18l-14 8q-16 9 -16 26q0 3 1 11.5t4 22.5q4 18 14.5 26t31.5 8h14z" />
<glyph unicode="-" horiz-adv-x="297" d="M250 294q9 0 11.5 -4t0.5 -11l-7 -39q-2 -10 -7.5 -11.5t-10.5 -1.5h-193q-9 0 -11.5 3.5t-0.5 11.5l7 37q2 7 5.5 11t12.5 4h193z" />
<glyph unicode="." horiz-adv-x="196" d="M68 94q37 0 37 -28q0 -2 -1 -11.5t-4 -23.5q-8 -39 -51 -39h-10q-17 0 -26.5 7t-9.5 18q0 8 1 16t4 22q4 20 17 29.5t33 9.5h10z" />
<glyph unicode="/" horiz-adv-x="340" d="M48 -11q-5 -9 -9 -11.5t-12 -2.5h-36q-14 0 -8 14l344 686q5 9 8 11.5t11 2.5h36q16 0 9 -14z" />
<glyph unicode="0" d="M423 471q0 22 -2 42t-10 37q-20 49 -88 49q-66 0 -109 -51q-18 -21 -30 -48t-21 -56t-15.5 -58.5t-11.5 -55.5q-8 -42 -14 -80.5t-6 -73.5q0 -30 4.5 -53.5t16 -40t31 -25.5t48.5 -9q38 0 64.5 12t48.5 38q18 21 29.5 48t20 56.5t14 59t10.5 55.5q8 42 14 80.5t6 73.5z M495 479q0 -36 -4.5 -76t-15.5 -93q-10 -51 -20.5 -91.5t-23 -72.5t-28 -57t-36.5 -45q-31 -29 -70.5 -41t-87.5 -12q-88 0 -126.5 45t-38.5 136q0 32 5 72t15 93q10 55 21.5 96t25 72.5t29.5 55t36 41.5q31 29 70 41.5t84 12.5q88 0 129 -44q20 -22 28 -52t8 -81z" />
<glyph unicode="1" d="M414 59q14 0 11 -15l-5 -31q-1 -13 -17 -13h-353q-16 0 -13 15l5 29q3 15 19 15h142l102 522h-5l-126 -58q-15 -7 -20 5l-12 26q-6 12 8 19l144 65q10 5 18.5 7t21.5 2h31q11 0 15 -2.5t2 -13.5l-110 -572h142z" />
<glyph unicode="2" d="M165 629q35 12 78.5 19.5t85.5 7.5q164 0 164 -128q0 -51 -11 -87.5t-33.5 -63.5t-57.5 -47t-84 -38l-72 -26q-64 -23 -95.5 -64.5t-41.5 -107.5l-5 -35h282q14 0 11 -13l-6 -34q-3 -12 -15 -12h-321q-27 0 -22 27l8 55q8 54 23 93.5t38.5 68t54.5 48t70 33.5l66 23 q41 15 68 31t42.5 35.5t21.5 44.5t6 57q0 45 -25 63t-77 18q-32 0 -69.5 -7t-67.5 -18q-17 -6 -21 8l-8 30q-2 7 0.5 11.5t12.5 7.5z" />
<glyph unicode="3" d="M186 49q63 0 101 20.5t55 74.5q6 20 8.5 36.5t2.5 33.5q0 53 -33 76q-19 13 -46.5 18.5t-67.5 5.5h-27q-9 0 -11 3.5t0 11.5l5 28q3 14 19 14h24q35 0 69.5 10t61.5 29q26 18 37 46.5t11 64.5q0 41 -24 59t-78 18q-29 0 -64 -6t-62 -15q-17 -6 -21 9l-7 25q-4 14 13 20 q30 11 73 18t80 7q78 0 120.5 -30t42.5 -93q0 -44 -8.5 -72.5t-29.5 -55.5q-17 -21 -41.5 -37t-59.5 -25v-3q51 -8 74 -40.5t23 -82.5q0 -33 -9 -72q-19 -81 -77.5 -117.5t-161.5 -36.5q-37 0 -73.5 7.5t-63.5 17.5q-16 5 -9 22l8 22q4 11 10 12.5t16 -1.5q30 -10 59.5 -16 t60.5 -6z" />
<glyph unicode="4" d="M29 166q-18 0 -15 16l3 20q2 10 7.5 17t19.5 26l289 379q10 13 19.5 18t28.5 5h53q17 0 22.5 -7.5t2.5 -22.5l-76 -392h65q11 0 13.5 -3t1.5 -11l-6 -33q-1 -6 -5 -9t-15 -3h-65l-29 -149q-3 -17 -18 -17h-38q-16 0 -13 17l29 149h-274zM385 586h-7l-274 -361h210z" />
<glyph unicode="5" d="M38 23q-12 5 -7 21l9 25q3 9 9.5 10.5t12.5 -1.5q27 -13 64 -21.5t71 -8.5q75 0 113 28t58 85q8 21 11 47.5t3 49.5q0 48 -25.5 69t-69.5 21q-38 0 -70.5 -8t-60.5 -21q-8 -4 -13 -5t-12 2l-18 8q-8 4 -5 17l76 288q4 18 22 18h267q18 0 15 -16l-6 -28q-2 -8 -6.5 -11.5 t-16.5 -3.5h-211q-12 0 -15 -13l-52 -194q23 11 53 18t62 7q161 0 161 -137q0 -13 -1.5 -29.5t-4.5 -34.5t-7 -35.5t-9 -32.5q-26 -75 -87.5 -111t-158.5 -36q-39 0 -78.5 9.5t-72.5 23.5z" />
<glyph unicode="6" d="M490 639q17 -7 11 -19l-12 -26q-8 -18 -23 -11q-37 16 -84 16q-42 0 -75.5 -11t-56.5 -30q-20 -16 -34.5 -38t-25.5 -48t-19 -55t-15 -60q28 20 68.5 34.5t85.5 14.5q80 0 119 -33.5t39 -104.5q0 -12 -2 -31t-7 -50q-17 -97 -76 -147t-157 -50q-41 0 -72.5 9.5t-53 31.5 t-33 57.5t-11.5 86.5q0 29 5.5 65.5t13.5 78.5q17 88 41 156.5t74 115.5q34 32 81 48.5t113 16.5q31 0 58.5 -4.5t47.5 -12.5zM298 347q-46 0 -86 -16.5t-70 -40.5q-6 -32 -10 -59t-4 -49q0 -69 23 -102t81 -33q36 0 62 9.5t44 27.5t29.5 43.5t17.5 56.5q5 23 6.5 40t1.5 27 q0 48 -20.5 72t-74.5 24z" />
<glyph unicode="7" d="M132 22q-7 -12 -13.5 -17t-20.5 -5h-34q-9 0 -13 5.5t4 16.5l385 566h-304q-12 0 -11 13l7 33q3 13 16 13h360q22 0 19 -20l-3 -16q-2 -12 -9.5 -24.5t-22.5 -35.5z" />
<glyph unicode="8" d="M487 447q-13 -35 -39.5 -65t-72.5 -55q45 -26 62.5 -57.5t17.5 -66.5q0 -15 -2 -30t-7 -35q-20 -74 -76.5 -110.5t-144.5 -36.5q-96 0 -141 38.5t-45 102.5q0 35 8.5 68t26 61.5t44.5 50.5t64 36q-30 20 -44 48.5t-14 70.5q0 15 3 33t10 38q20 56 70 87t130 31 q78 0 121 -33.5t43 -95.5q0 -17 -3.5 -39t-10.5 -41zM228 325q-57 -29 -85.5 -76.5t-28.5 -110.5q0 -45 27.5 -68.5t90.5 -23.5q52 0 90.5 25.5t49.5 72.5q4 14 5 25.5t1 21.5q0 32 -17 56t-59 43zM199 473q0 -19 3 -32.5t11 -24.5t20.5 -20t32.5 -18l58 -27q35 22 55 44 t32 52q8 21 11 39t3 30q0 45 -27 65.5t-71 20.5t-73 -18.5t-43 -51.5q-5 -13 -8.5 -29t-3.5 -30z" />
<glyph unicode="9" d="M66 7q-17 7 -11 19l12 26q8 17 23 11q39 -16 87 -16q35 0 67.5 12t55.5 31q19 16 34.5 38t27.5 48t20.5 54t15.5 57q-28 -20 -68 -33.5t-84 -13.5q-82 0 -120 35t-38 110q0 12 1.5 31t7.5 50q9 51 30 87t51 59t68.5 33.5t83.5 10.5q48 0 80.5 -12t52.5 -34.5t28.5 -54.5 t8.5 -72q0 -33 -5 -69t-13 -78q-17 -88 -44 -160.5t-77 -118.5q-34 -32 -81 -49.5t-113 -17.5q-30 0 -55.5 4.5t-45.5 12.5zM258 299q45 0 85 16.5t71 40.5q7 32 11 63.5t4 55.5q0 71 -27 98q-14 14 -32.5 20t-45.5 6q-64 0 -102.5 -36t-50.5 -101q-5 -23 -6.5 -40t-1.5 -27 q0 -48 20.5 -72t74.5 -24z" />
<glyph unicode=":" horiz-adv-x="231" d="M25 0zM163 475q37 0 37 -28q0 -2 -1 -11.5t-4 -23.5q-8 -39 -51 -39h-10q-17 0 -26.5 7t-9.5 18q0 8 1 16t4 22q4 20 17 29.5t33 9.5h10zM90 94q37 0 37 -28q0 -2 -1 -11.5t-4 -23.5q-8 -39 -51 -39h-10q-17 0 -26.5 7t-9.5 18q0 8 1 16t4 22q4 20 17 29.5t33 9.5h10z " />
<glyph unicode=";" horiz-adv-x="231" d="M0 0zM164 475q37 0 37 -28q0 -2 -1 -11.5t-4 -23.5q-8 -39 -51 -39h-10q-17 0 -26.5 7t-9.5 18q0 8 1 16t4 22q4 20 17 29.5t33 9.5h10zM89 94q21 0 31 -7.5t10 -27.5q0 -15 -4 -35q-4 -17 -10.5 -34.5t-17.5 -37.5q-11 -21 -27.5 -42t-32.5 -36q-9 -9 -18 -2l-16 11 q-9 8 2 19q15 15 27 33q14 20 23 39q7 14 -2 18l-14 8q-16 9 -16 26q0 3 1 11.5t4 22.5q4 18 14.5 26t31.5 8h14z" />
<glyph unicode="&#x3c;" d="M377 115q8 -5 8.5 -10.5t-4.5 -13.5l-13 -17q-11 -14 -27 -3l-276 168q-8 5 -7 15l3 19q1 9 13 14l344 170q16 7 22 -5l13 -28q6 -12 -9 -19l-296 -148z" />
<glyph unicode="=" d="M450 198q16 0 13 -15l-8 -37q-3 -13 -17 -13h-411q-9 0 -11.5 3.5t-0.5 11.5l7 35q2 8 5 11.5t12 3.5h411zM487 388q15 0 12 -15l-7 -37q-3 -13 -18 -13h-409q-17 0 -14 15l7 35q3 15 20 15h409z" />
<glyph unicode="&#x3e;" d="M133 412q-8 5 -7.5 10t5.5 13l13 17q10 13 25 4l278 -169q8 -5 7 -15l-3 -19q-1 -9 -13 -14l-344 -170q-16 -7 -22 5l-13 28q-6 12 9 19l296 148z" />
<glyph unicode="?" horiz-adv-x="446" d="M130 91q35 0 35 -30q0 -5 -1 -10t-4 -21q-4 -20 -17 -29.5t-33 -9.5h-10q-16 0 -25.5 7.5t-9.5 21.5q0 5 1 10.5t4 21.5q4 19 17.5 29t32.5 10h10zM104 160q4 31 10.5 58t17 49.5t26.5 41t41 33.5l68 37q55 30 81.5 61.5t26.5 81.5q0 42 -27 59t-81 17q-61 0 -136 -25 q-15 -5 -18 8l-7 30q-3 12 10 17q36 13 75 20.5t84 7.5q85 0 128.5 -32t43.5 -92q0 -35 -7.5 -62t-24 -50t-43.5 -43t-65 -42l-62 -35q-20 -11 -32.5 -22.5t-21 -27t-14 -37.5t-9.5 -53q-2 -16 -21 -16h-33q-12 0 -10 16z" />
<glyph unicode="@" horiz-adv-x="816" d="M788 425q0 -52 -12.5 -102.5t-38.5 -91t-66.5 -65.5t-96.5 -25q-39 0 -63 16.5t-26 45.5h-1q-30 -52 -113 -52q-52 0 -73.5 23t-21.5 58q0 16 2.5 35.5t6.5 40.5t9 41t9 38q14 58 47.5 84.5t93.5 26.5q33 0 54 -12.5t27 -31.5h2l7 21q2 10 15 10h23q14 0 11 -13l-35 -183 q-2 -11 -6 -30.5t-4 -36.5q0 -37 45 -37q36 0 64.5 19.5t48 51.5t30 74.5t10.5 89.5q0 54 -18.5 93t-51 64t-77.5 37t-98 12q-87 0 -154 -30t-112.5 -82t-69 -122t-23.5 -149q0 -48 13 -88.5t42.5 -69.5t77.5 -45.5t119 -16.5q48 0 93 7.5t93 23.5q9 3 12 -8l5 -23 q0 -8 -8 -11q-48 -19 -101.5 -28.5t-98.5 -9.5q-159 0 -237.5 66.5t-78.5 205.5q0 88 29.5 166t85 136.5t136 93t182.5 34.5q62 0 115.5 -15t92.5 -45.5t61.5 -78t22.5 -112.5zM499 369q2 8 3 15.5t1 15.5q0 24 -16.5 36t-41.5 12q-33 0 -53.5 -16.5t-28.5 -53.5 q-5 -20 -9 -41t-8 -39.5t-6 -34t-2 -22.5q0 -22 10.5 -33t35.5 -11q38 0 64 22t35 67z" />
<glyph unicode="A" horiz-adv-x="559" d="M373 647q27 0 34 -32q7 -35 13 -72.5t11 -76.5q14 -105 25 -217t19 -230q1 -10 -4.5 -14.5t-13.5 -4.5h-35q-19 0 -20 16q-2 47 -5.5 95t-7.5 94h-239q-11 -24 -21.5 -46.5l-21 -45t-21 -46.5t-22.5 -51q-7 -16 -24 -16h-35q-8 0 -12 4.5t0 14.5q51 115 106 228t109 219 q20 39 41 78t42 75q10 17 20 22.5t26 5.5h36zM263 442q-23 -47 -44.5 -91t-41.5 -89h208q-3 46 -7.5 89t-9.5 91q-4 33 -8.5 69t-10.5 71h-12q-20 -36 -39 -72t-35 -68z" />
<glyph unicode="B" horiz-adv-x="500" d="M293 656q44 0 79 -6t59.5 -21t37.5 -40t13 -62q0 -31 -7 -60.5t-22 -54t-39.5 -43t-58.5 -27.5v-2q23 -3 42.5 -11t33.5 -21.5t22 -34t8 -48.5q0 -63 -18.5 -105.5t-53.5 -68.5q-38 -29 -89 -40t-120 -11q-27 0 -64 2t-73 7q-21 3 -17 28l113 584q4 23 29 27t55.5 6 t69.5 2zM148 309l-46 -235q-3 -13 10 -14q17 -2 36.5 -3t42.5 -1q47 0 84 9t63 31q23 20 35.5 50.5t12.5 75.5q0 47 -36.5 67t-122.5 20h-79zM214 597q-10 -1 -13 -14l-42 -217h62q48 0 78.5 7.5t54.5 24.5q27 20 40 48t13 71q0 47 -26.5 65.5t-87.5 18.5q-22 0 -41.5 -1 t-37.5 -3z" />
<glyph unicode="C" horiz-adv-x="506" d="M348 656q49 0 89.5 -12t72.5 -30q12 -7 4 -20l-15 -26q-5 -8 -10 -8t-13 5q-31 16 -62 24t-66 8q-75 0 -113 -32q-16 -14 -28 -31t-22.5 -41.5t-19 -58t-16.5 -80.5q-12 -67 -18.5 -107.5t-6.5 -66.5q0 -22 1.5 -38t5 -27.5t9 -20t13.5 -16.5q17 -15 42 -22t67 -7 q30 0 66 6.5t71 20.5q16 7 20 -7l7 -26q4 -15 -9 -20q-48 -17 -86.5 -24.5t-76.5 -7.5q-51 0 -89 8t-63.5 28.5t-38 55.5t-12.5 88q0 29 9 84t23 135q13 76 35.5 127.5t55 82t75.5 43.5t99 13z" />
<glyph unicode="D" horiz-adv-x="580" d="M46 0q-28 0 -22 25l116 594q2 11 6.5 16.5t16.5 7.5q24 4 62.5 6.5t73.5 2.5q127 0 188.5 -45.5t61.5 -154.5q0 -26 -5 -74.5t-21 -114.5q-19 -81 -53.5 -132t-82.5 -80.5t-110 -40t-136 -10.5h-95zM298 595q-28 0 -47.5 -0.5t-34.5 -2.5q-12 -1 -15 -15l-99 -507 q-3 -13 10 -13h53q61 0 108 11.5t82.5 37t59.5 66t38 97.5q13 51 19.5 93t6.5 82q0 43 -10.5 72.5t-32 46.5t-56 24.5t-82.5 7.5z" />
<glyph unicode="E" horiz-adv-x="476" d="M137 0q-48 0 -73.5 16t-25.5 63q0 21 4.5 51t10.5 64q8 47 16 90t17 85t18.5 85.5t20.5 90.5q13 57 46 81q17 12 39.5 16.5t53.5 4.5h214q9 0 11.5 -3.5t0.5 -11.5l-6 -29q-2 -7 -5.5 -11t-12.5 -4h-209q-29 0 -43 -10q-8 -6 -12 -16t-8 -25q-5 -18 -9 -35.5t-8.5 -38 t-10 -44.5t-11.5 -55h244q9 0 11.5 -3.5t0.5 -11.5l-6 -29q-2 -7 -5.5 -11t-12.5 -4h-244q-14 -68 -21 -109.5t-11 -68.5q-3 -24 -3 -39q1 -29 45 -29h227q9 0 11 -4t0 -11l-5 -29q-2 -8 -5 -11.5t-12 -3.5h-232z" />
<glyph unicode="F" horiz-adv-x="447" d="M260 588q-34 0 -49 -12q-14 -11 -20 -45l-32 -167h242q15 0 12 -13l-6 -33q-2 -8 -5.5 -10.5t-12.5 -2.5h-242l-56 -288q-3 -17 -16 -17h-40q-16 0 -13 17l102 527q12 55 43 79q17 13 39.5 18.5t49.5 5.5h207q5 0 9.5 -1.5t2.5 -11.5l-7 -33q-1 -13 -17 -13h-191z" />
<glyph unicode="G" horiz-adv-x="565" d="M362 597q-55 0 -91 -16t-59 -46.5t-37 -74t-25 -98.5q-12 -58 -19.5 -104t-7.5 -78q0 -36 7.5 -61t24.5 -40.5t45 -22.5t69 -7q31 0 62 3.5t48 7.5q13 3 16 18l39 207h-90q-15 0 -12 15l6 31q3 13 18 13h145q14 0 11 -14l-56 -288q-2 -13 -6.5 -18.5t-15.5 -8.5 q-32 -9 -78 -16.5t-95 -7.5q-51 0 -90.5 8.5t-66.5 29.5t-41 55.5t-14 86.5q0 35 8 83.5t22 117.5q14 67 32.5 120t50 89.5t80.5 55.5t123 19q46 0 89.5 -11.5t76.5 -31.5q8 -5 8 -9.5t-4 -10.5l-17 -29q-5 -8 -10 -8t-13 5q-33 19 -66.5 27.5t-66.5 8.5z" />
<glyph unicode="H" horiz-adv-x="594" d="M523 630q3 17 18 17h39q10 0 12 -5t0 -12l-119 -613q-3 -17 -19 -17h-39q-14 0 -11 17l56 287h-313l-56 -287q-3 -17 -19 -17h-39q-14 0 -11 17l119 613q3 17 18 17h39q10 0 12 -5t0 -12l-52 -268h313z" />
<glyph unicode="I" horiz-adv-x="225" d="M148 630q4 17 18 17h39q10 0 12 -6t0 -11l-119 -613q-3 -17 -18 -17h-39q-15 0 -12 17z" />
<glyph unicode="J" horiz-adv-x="314" d="M222 196q-15 -76 -41 -120q-23 -40 -60 -58t-91 -18h-38q-19 0 -16 17l5 29q3 13 15 13h42q36 0 56.5 13.5t32.5 35.5q11 20 16 41t11 53l83 428q3 17 18 17h39q15 0 12 -17z" />
<glyph unicode="K" horiz-adv-x="504" d="M313 345q-8 -9 -8 -14q0 -4 1 -6l2 -4l150 -308q6 -13 -12 -13h-47q-13 0 -18 14l-130 273q-5 11 -11.5 14t-20.5 3h-70l-56 -287q-3 -17 -18 -17h-39q-15 0 -12 17l119 613q4 17 18 17h39q10 0 12 -6t0 -11l-52 -268h63q14 0 23 3.5t17 13.5l216 253q8 9 14 12t14 3h40 q10 0 12.5 -5t-3.5 -12z" />
<glyph unicode="L" horiz-adv-x="360" d="M297 59q15 0 12 -13l-6 -33q-3 -13 -17 -13h-192q-31 0 -45.5 11t-14.5 40q0 14 3 35.5t7 39.5l97 504q3 17 18 17h39q15 0 12 -17l-100 -514q-2 -11 -3.5 -20t-1.5 -19t7 -14t28 -4h157z" />
<glyph unicode="M" horiz-adv-x="750" d="M334 103q-17 0 -26 6.5t-14 28.5q-9 45 -19 99.5t-19.5 112.5t-18.5 115.5t-17 110.5h-7q-36 -134 -68 -272t-65 -287q-3 -17 -18 -17h-38q-15 0 -12 17q35 150 72 301.5t78 295.5q5 19 14.5 26t29.5 7h35q21 0 29 -6.5t11 -27.5q8 -52 17 -109.5t19 -116t20 -115 t20 -106.5h5q29 50 61 107t64.5 115.5t63.5 116t59 108.5q10 19 20 26.5t33 7.5h34q21 0 28.5 -8t5.5 -28q-17 -146 -38 -295.5t-44 -298.5q-3 -17 -16 -17h-38q-17 0 -14 17q24 149 45.5 288t39.5 271h-7q-29 -53 -60 -110.5t-62.5 -115.5t-62 -112.5t-57.5 -99.5 q-14 -22 -26 -28.5t-29 -6.5h-28z" />
<glyph unicode="N" horiz-adv-x="604" d="M485 27q-3 -16 -12.5 -21.5t-26.5 -5.5h-44q-18 0 -26 5t-13 21l-160 554h-7l-110 -563q-3 -17 -19 -17h-34q-14 0 -11 17l117 603q3 16 10 21.5t27 5.5h45q17 0 26 -5.5t14 -22.5l161 -554h7l108 563q4 17 18 17h34q15 0 12 -17z" />
<glyph unicode="O" horiz-adv-x="586" d="M461 310q13 56 17 91t4 64q0 66 -27 99t-100 33q-42 0 -69 -10t-50 -30q-19 -17 -32 -38.5t-23.5 -48.5t-18.5 -60t-17 -73q-11 -56 -16 -91t-5 -64q0 -34 5 -59t19.5 -41t39 -24t63.5 -8q45 0 78 15.5t57.5 47t42 80.5t32.5 117zM531 297q-18 -84 -42 -142.5t-57.5 -95 t-78.5 -52.5t-105 -16q-47 0 -83.5 8.5t-61.5 29.5t-38.5 55.5t-13.5 86.5q0 47 8 94t16 85q10 48 20.5 86.5t23.5 69t30.5 55t40.5 44.5q60 51 168 51q44 0 80.5 -9t62.5 -30t40 -55.5t14 -85.5q0 -47 -8 -94t-16 -85z" />
<glyph unicode="P" horiz-adv-x="504" d="M91 17q-3 -17 -20 -17h-39q-13 0 -10 17l117 604q2 11 6 15.5t13 6.5q28 5 65 9t77 4q43 0 81 -7t66 -23.5t44 -44t16 -69.5q0 -17 -2.5 -42t-9.5 -51q-25 -93 -91.5 -132t-171.5 -39h-96zM217 592q-9 -2 -13 -7t-6 -16l-51 -261q23 -1 42 -1h41q86 0 131.5 29t63.5 96 q6 21 8 39t2 30q0 29 -9.5 47.5t-28 29.5t-46 15t-63.5 4q-21 0 -38.5 -1.5t-32.5 -3.5z" />
<glyph unicode="Q" horiz-adv-x="586" d="M531 297q-15 -68 -33.5 -119.5t-42.5 -87.5t-55 -58t-70 -32q18 -31 49.5 -65.5t66.5 -60.5q14 -10 0 -19l-29 -18q-13 -7 -20 -7t-15 7q-36 29 -66 67.5t-52 86.5h-16q-47 0 -83.5 8.5t-61.5 29.5t-38.5 55.5t-13.5 86.5q0 47 8 94t16 85q10 48 20.5 86.5t23.5 69 t30.5 55t40.5 44.5q60 51 168 51q44 0 80.5 -9t62.5 -30t40 -55.5t14 -85.5q0 -47 -8 -94t-16 -85zM461 310q13 56 17 91t4 64q0 66 -27 99t-100 33q-42 0 -69 -10t-50 -30q-19 -17 -32.5 -38.5t-23.5 -48.5t-18.5 -60t-16.5 -73q-12 -56 -16.5 -91t-4.5 -64q0 -34 5 -59 t19.5 -41t39 -24t63.5 -8q45 0 77.5 13.5t56.5 44t41.5 80.5t34.5 122z" />
<glyph unicode="R" horiz-adv-x="508" d="M139 621q2 13 8.5 18.5t17.5 7.5q26 5 53 7t65 2q49 0 89 -6.5t67.5 -21.5t42.5 -40.5t15 -63.5q0 -23 -3.5 -46.5t-12.5 -50.5q-20 -60 -54 -92.5t-90 -46.5l110 -273q8 -15 -12 -15h-51q-12 0 -15 9l-99 259q-2 5 -5.5 6.5t-8.5 1.5h-29h-41.5t-44.5 1l-50 -263 q-2 -9 -7 -11.5t-13 -2.5h-39q-8 0 -10 2.5t0 11.5zM218 593q-9 -2 -13.5 -5.5t-6.5 -17.5l-45 -233q24 -2 40 -2h39q40 0 69.5 5t50.5 17t35.5 31.5t24.5 48.5q8 23 11 40.5t3 32.5q0 52 -37.5 69.5t-112.5 17.5q-17 0 -30.5 -1t-27.5 -3z" />
<glyph unicode="S" horiz-adv-x="488" d="M187 -9q-50 0 -89.5 8t-76.5 23q-15 5 -9 22l8 26q6 17 23 10q31 -14 68.5 -22.5t71.5 -8.5q60 0 101 21t58 76q5 17 9 33.5t4 29.5q0 35 -18.5 52.5t-63.5 29.5l-77 21q-62 17 -85.5 48.5t-23.5 79.5q0 18 5.5 42t13.5 49q9 28 24.5 51t39.5 39.5t59 25.5t84 9 q44 0 80 -6t68 -17q13 -5 7 -20l-10 -28q-6 -14 -23 -8q-35 11 -65.5 15.5t-62.5 4.5q-62 0 -93 -21.5t-43 -63.5q-6 -22 -9.5 -36.5t-3.5 -31.5q0 -26 13.5 -42.5t53.5 -27.5l91 -25q60 -17 85.5 -45t25.5 -79q0 -18 -4.5 -40.5t-12.5 -51.5q-21 -74 -76 -108t-147 -34z " />
<glyph unicode="T" horiz-adv-x="465" d="M88 588q-9 0 -11.5 4t-0.5 11l6 31q2 10 7.5 11.5t10.5 1.5h409q9 0 11.5 -3.5t0.5 -11.5l-6 -29q-2 -7 -5.5 -11t-12.5 -4h-170l-111 -571q-3 -17 -18 -17h-39q-15 0 -12 17l111 571h-170z" />
<glyph unicode="U" horiz-adv-x="585" d="M141 630q5 17 18 17h39q17 0 12 -17l-80 -413q-4 -21 -6 -38t-2 -31q0 -54 35.5 -76t94.5 -22q42 0 71 8t52 28q11 10 20 21.5t16 26.5t13 35t11 48l80 413q5 17 18 17h39q17 0 12 -17l-81 -420q-12 -62 -31 -103.5t-50 -67.5t-75 -37t-105 -11q-38 0 -72.5 7.5t-60.5 25 t-41 46.5t-15 73q0 15 1.5 32t5.5 35z" />
<glyph unicode="V" horiz-adv-x="510" d="M185 0q-19 0 -26 7.5t-11 27.5q-26 145 -41 291.5t-25 301.5q-1 10 5.5 14.5t14.5 4.5h32q18 0 19 -16q8 -140 20.5 -278t32.5 -284h12q73 134 140 271t133 291q7 16 24 16h38q19 0 11 -19q-65 -152 -137.5 -298.5t-156.5 -294.5q-11 -20 -20.5 -27.5t-28.5 -7.5h-36z " />
<glyph unicode="W" horiz-adv-x="778" d="M846 628q-54 -141 -116.5 -286t-135.5 -307q-9 -20 -20 -27.5t-27 -7.5h-48q-16 0 -25.5 7.5t-11.5 27.5q-10 124 -14.5 246t-2.5 258h-8q-50 -122 -100.5 -245.5t-112.5 -258.5q-9 -20 -20.5 -27.5t-28.5 -7.5h-44q-15 0 -24.5 7.5t-11.5 27.5q-7 107 -10.5 256.5 t-2.5 338.5q0 10 4.5 13.5t16.5 3.5h29q12 0 16.5 -3t4.5 -14q-2 -141 -1 -282.5t9 -281.5h11q54 127 107.5 253.5t109.5 263.5q8 18 14.5 25t25.5 7h45q19 0 27 -7t8 -25q0 -129 4 -257.5t13 -259.5h11q66 144 126.5 290.5t109.5 274.5q7 16 24 16h38q19 0 11 -19z" />
<glyph unicode="X" horiz-adv-x="505" d="M171 322q9 12 6 24l-82 282q-3 11 2.5 15t13.5 4h31q9 0 13.5 -1.5t7.5 -10.5l68 -251q4 -13 8 -17.5t12 -4.5h16q11 0 17 4t16 18l163 252q5 8 11 9.5t16 1.5h43q8 0 10.5 -3.5t-4.5 -14.5l-189 -283q-6 -8 -6.5 -14t1.5 -13l105 -304q4 -15 -11 -15h-47q-13 0 -16 9 l-89 276q-4 12 -9 15.5t-17 3.5h-9q-14 0 -19.5 -3.5t-13.5 -15.5l-170 -272q-8 -13 -21 -13h-50q-9 0 -10 5t4 12z" />
<glyph unicode="Y" horiz-adv-x="453" d="M180 220q-39 100 -64 201.5t-34 213.5q-1 12 13 12h44q14 0 15 -10q9 -98 24.5 -181.5t43.5 -164.5h7q59 85 111 168.5t99 177.5q5 10 18 10h44q6 0 9.5 -2.5t0.5 -9.5q-26 -55 -54.5 -106t-60 -101.5t-68 -102t-79.5 -107.5l-39 -201q-3 -17 -18 -17h-39q-15 0 -12 17z " />
<glyph unicode="Z" horiz-adv-x="491" d="M-5 34q2 13 9 22.5t20 25.5l405 506h-316q-13 0 -10 14l6 32q3 13 16 13h374q11 0 16 -4.5t3 -16.5l-2 -14q-2 -14 -10.5 -26.5t-30.5 -40.5l-388 -486h313q11 0 10 -13l-6 -33q-3 -13 -15 -13h-378q-20 0 -18 16z" />
<glyph unicode="[" horiz-adv-x="271" d="M308 682q9 0 11.5 -3.5t0.5 -11.5l-5 -31q-3 -13 -19 -13h-101l-126 -656h101q15 0 12 -15l-6 -31q-3 -13 -18 -13h-150q-13 0 -10 15l144 745q3 14 18 14h148z" />
<glyph unicode="\" horiz-adv-x="362" d="M118 673q-2 16 13 16h36q8 0 11 -2.5t5 -11.5l77 -684q2 -16 -13 -16h-36q-8 0 -11 2.5t-5 11.5z" />
<glyph unicode="]" horiz-adv-x="271" d="M-35 -92q-9 0 -11.5 3.5t-0.5 11.5l5 31q3 13 19 13h101l126 656h-101q-15 0 -12 15l6 31q3 13 18 13h150q13 0 10 -15l-144 -745q-3 -14 -18 -14h-148z" />
<glyph unicode="^" d="M333 602q21 0 29 -16l113 -224q5 -10 3.5 -15t-9.5 -10l-27 -12q-17 -8 -25 7l-104 192h-8l-181 -194q-7 -8 -13.5 -10t-14.5 3l-30 16q-6 4 -6.5 10t4.5 11l202 226q8 9 15 12.5t19 3.5h33z" />
<glyph unicode="_" horiz-adv-x="503" d="M401 -38q13 0 10 -11l-6 -27q-2 -6 -5 -8t-12 -2h-414q-13 0 -10 11l6 27q2 6 5 8t12 2h414z" />
<glyph unicode="`" horiz-adv-x="308" d="M337 631q13 -6 7 -18l-10 -23q-4 -11 -20 -5l-191 68q-10 4 -12 9.5t1 14.5l11 31q6 16 25 7z" />
<glyph unicode="a" horiz-adv-x="467" d="M304 48h-2q-23 -32 -55 -44.5t-74 -12.5h-25q-122 0 -122 99q0 24 3.5 46.5t14.5 52.5q9 25 23 44t35.5 32t52.5 19.5t74 6.5h43q17 0 36.5 -1t36.5 -3l8 38q3 14 5.5 30t2.5 27q0 17 -4 28.5t-14.5 19t-29 10.5t-47.5 3q-33 0 -64.5 -5.5t-57.5 -13.5q-19 -6 -22 11 l-4 25q-1 13 13 17q32 9 72.5 15.5t72.5 6.5q71 0 110.5 -23t39.5 -80q0 -11 -2.5 -28.5t-5.5 -31.5l-63 -326q-1 -10 -12 -10h-33q-12 0 -10 12zM335 232q-18 2 -35 3t-37 1h-48q-25 0 -43 -3.5t-31.5 -12.5t-22.5 -23.5t-16 -36.5q-6 -19 -8.5 -34.5t-2.5 -29.5 q0 -50 68 -50h21q54 0 90 27t50 88z" />
<glyph unicode="b" horiz-adv-x="488" d="M300 499q42 0 71 -9.5t49 -29.5q17 -18 24.5 -41t7.5 -61q0 -20 -4 -53t-15 -85q-9 -42 -16.5 -71t-16.5 -50.5t-20 -36.5t-25 -28q-27 -24 -62.5 -33.5t-89.5 -9.5q-81 0 -119.5 29.5t-38.5 94.5q0 20 2.5 39.5t8.5 50.5l90 461q2 11 12 11h43q12 0 10 -11l-41 -212h2 q46 45 128 45zM209 46q33 0 56.5 6.5t42.5 23.5q10 10 18.5 22t15 30t13 42t13.5 58q9 43 12.5 71.5t3.5 44.5q0 26 -3.5 42.5t-14.5 30.5t-30.5 20.5t-52.5 6.5q-30 0 -53.5 -8t-40.5 -22q-10 -8 -17 -17.5t-12 -21.5t-9.5 -27.5t-8.5 -36.5l-23 -120q-4 -18 -6.5 -35 t-2.5 -39q0 -39 23.5 -55t75.5 -16z" />
<glyph unicode="c" horiz-adv-x="418" d="M344 34q2 -7 0 -10.5t-10 -6.5q-23 -9 -61.5 -17.5t-73.5 -8.5q-84 0 -122.5 32.5t-38.5 108.5q0 29 7 71.5t17 90.5q23 113 80 159t142 46q35 0 70.5 -10.5t60.5 -26.5q10 -6 2 -19l-13 -22q-8 -13 -19 -7q-26 14 -50.5 22t-53.5 8q-31 0 -56 -8.5t-44.5 -28 t-33.5 -52.5t-24 -81q-8 -41 -14 -79t-6 -58q0 -26 5 -43.5t17.5 -28t33 -15t51.5 -4.5q26 0 55.5 6t55.5 16q14 5 17 -9z" />
<glyph unicode="d" horiz-adv-x="486" d="M407 191q-12 -61 -29 -100t-44 -62q-26 -22 -60 -30t-85 -8q-78 0 -114.5 30.5t-36.5 106.5q0 30 5.5 67.5t12.5 76.5q14 78 34 124.5t49 69.5q24 20 55 26.5t70 6.5q55 0 85 -16t40 -45h2l44 228q1 11 13 11h42q11 0 9 -11zM364 311q5 23 5 45q0 41 -26.5 64.5 t-75.5 23.5q-28 0 -49 -5t-38 -20q-20 -18 -34 -54t-25 -97q-9 -48 -13.5 -76.5t-4.5 -51.5q0 -48 19.5 -71t74.5 -23q33 0 54.5 5.5t38.5 19.5q17 15 27.5 40t18.5 62z" />
<glyph unicode="e" horiz-adv-x="450" d="M397 228q-3 -20 -29 -20h-258q-4 -20 -6 -37.5t-2 -33.5q0 -27 5.5 -44.5t18 -28t34 -14.5t54.5 -4q29 0 61.5 6t62.5 17q17 6 20 -8l5 -23q2 -7 -1 -11t-15 -9q-37 -14 -74 -20.5t-70 -6.5q-49 0 -81 9.5t-50.5 27t-26 42.5t-7.5 56q0 32 5.5 71.5t12.5 77.5 q13 71 29 114t44 69q25 23 59 32t82 9q70 0 109 -31t39 -101q0 -11 -1.5 -23.5t-3.5 -26.5zM261 444q-26 0 -46.5 -4.5t-35.5 -17.5q-18 -16 -29.5 -43t-21.5 -77l-8 -42h203q13 0 16 11l8 42q3 14 4.5 28t1.5 25q0 42 -20.5 60t-71.5 18z" />
<glyph unicode="f" horiz-adv-x="300" d="M6 -177q-5 0 -8 3.5t-1 8.5q11 30 20 56.5t16 52.5t13 54t12 62l67 373h-61q-10 0 -8 11l5 24q3 12 13 13l62 9l6 31q8 42 20.5 73.5t32.5 51.5t50.5 30t75.5 10q44 0 78 -10q13 -4 8 -18l-8 -23q-4 -13 -17 -10q-12 3 -26.5 5t-33.5 2q-26 0 -44.5 -4t-31.5 -16 t-22 -33.5t-16 -56.5l-7 -32h107q9 0 8 -10l-7 -37q-2 -10 -12 -10h-107l-65 -360q-8 -41 -15 -73.5t-14.5 -60.5t-16 -53t-18.5 -51q-5 -12 -14 -12h-41z" />
<glyph unicode="g" horiz-adv-x="481" d="M268 444q-33 0 -56.5 -7t-40 -25.5t-27.5 -50t-20 -79.5q-8 -44 -14.5 -82t-6.5 -70q0 -47 22 -66q21 -18 66 -18q58 0 97 31t51 95l25 130q3 17 5 30t2 24q0 42 -27.5 65t-75.5 23zM176 -187q-35 0 -64.5 4.5t-61.5 14.5q-13 4 -7 19l9 25q3 8 8 8.5t12 -1.5 q26 -8 51 -11.5t60 -3.5q28 0 49.5 9t35.5 25q17 18 25.5 43t14.5 54l10 47h-3q-39 -55 -130 -55q-70 0 -108.5 30.5t-38.5 103.5q0 30 7.5 75.5t15.5 91.5q10 56 24 95.5t36.5 64t56 36t83.5 11.5q57 0 88 -18.5t41 -47.5h2l14 43q5 14 20 14h23q16 0 13 -16l-91 -473 q-9 -47 -22.5 -82t-35.5 -58.5t-55.5 -35.5t-81.5 -12z" />
<glyph unicode="h" horiz-adv-x="497" d="M176 447q10 11 18.5 17.5t22.5 14.5q19 10 41 15t60 5q48 0 76 -11.5t43 -35.5t16.5 -58.5t-9.5 -90.5l-55 -289q-1 -5 -4 -9.5t-11 -4.5h-35q-11 0 -14 3t-1 14l56 292q9 46 9 71t-11 40q-10 14 -27.5 19.5t-49.5 5.5q-34 0 -57 -7.5t-43 -24.5t-34 -43t-22 -69 l-55 -286q-1 -7 -4.5 -11t-12.5 -4h-34q-17 0 -14 15l126 651q2 11 15 11h40q11 0 10 -10l-43 -220h3v0z" />
<glyph unicode="i" horiz-adv-x="226" d="M103 8q-2 -8 -10 -8h-48q-8 0 -7 8l91 471q2 11 14 11h41q12 0 10 -11zM233 611q-5 -23 -17 -31.5t-35 -8.5h-4q-39 0 -39 29q0 6 4 26q5 23 18.5 33t36.5 10h4q17 0 27 -7t10 -22q0 -4 -1 -10t-4 -19z" />
<glyph unicode="j" horiz-adv-x="215" d="M101 7q-8 -40 -21 -75t-39 -61q-22 -23 -53 -35.5t-80 -12.5h-23q-14 0 -11 14l6 29q2 12 13 12h22q51 0 81 33q17 19 26 45t15 56l89 467q2 11 14 11h41q12 0 10 -11zM230 615q-9 -44 -53 -44h-4q-39 0 -39 29q0 9 4 26q5 24 18.5 33.5t36.5 9.5h4q17 0 27 -7t10 -22 q0 -5 -1 -11t-3 -14z" />
<glyph unicode="k" horiz-adv-x="436" d="M88 8q-2 -8 -10 -8h-46q-10 0 -8 8l127 658q2 11 15 11h39q12 0 10 -11l-72 -376h45q22 0 35 16l150 173q8 11 21 11h46q6 0 8.5 -4t-4.5 -12l-179 -202q-10 -11 -2 -30l103 -229q2 -5 0 -9t-9 -4h-43q-12 0 -15 10l-90 210q-5 12 -10.5 15.5t-19.5 3.5h-46z" />
<glyph unicode="l" horiz-adv-x="255" d="M184 52q13 0 10 -13l-5 -27q-3 -12 -16 -12h-38q-29 0 -46.5 4.5t-28.5 15.5q-25 26 -10 101l105 544q2 12 13 12h42q12 0 10 -12l-104 -540q-5 -28 -5.5 -41.5t4.5 -21.5q5 -6 13 -8t24 -2h32z" />
<glyph unicode="m" horiz-adv-x="783" d="M602 499q90 0 120 -48q16 -24 17.5 -59.5t-9.5 -88.5l-56 -288q-2 -9 -6 -12t-12 -3h-34q-8 0 -11.5 3t-1.5 12l57 294q7 36 7 61.5t-9 42.5q-17 32 -75 32q-42 0 -78.5 -18t-62.5 -48q0 -23 -7 -64l-57 -300q-3 -15 -17 -15h-34q-17 0 -14 15l57 294q15 75 -5 106 q-20 30 -78 30q-30 0 -52 -7.5t-41 -23.5q-20 -17 -33 -41.5t-19 -54.5l-58 -303q-2 -7 -5 -11t-12 -4h-34q-17 0 -14 15l89 465q1 10 13 10h30q12 0 11 -10l-5 -42h2q25 30 56 44q37 17 89 17q32 0 54 -5.5t38 -16.5q14 -10 22 -21t13 -24h2q30 31 75 49t88 18z" />
<glyph unicode="n" horiz-adv-x="497" d="M165 437q10 12 22 22t30 20q19 10 41 15t60 5q48 0 76 -11.5t43 -35.5t16.5 -58.5t-9.5 -90.5l-55 -289q-1 -5 -4 -9.5t-11 -4.5h-35q-11 0 -14 3t-1 14l56 292q9 46 9 71t-11 40q-10 14 -27.5 19.5t-49.5 5.5q-34 0 -57 -7.5t-43 -24.5t-34 -43t-22 -69l-55 -286 q-2 -7 -5 -11t-12 -4h-34q-17 0 -14 15l89 465q1 10 13 10h30q12 0 11 -10l-5 -43h2z" />
<glyph unicode="o" horiz-adv-x="479" d="M204 46q42 0 68.5 14t44 41t28 66t19.5 89q5 27 8.5 54t3.5 47q0 47 -23.5 67t-76.5 20q-42 0 -68.5 -14t-44 -41t-28 -66t-19.5 -89q-5 -27 -8.5 -54t-3.5 -47q0 -49 24.5 -68t75.5 -19zM195 -9q-78 0 -117.5 33t-39.5 107q0 25 5 62t11 69q13 64 29 109t42 73.5 t64.5 41.5t95.5 13q86 0 121.5 -35t35.5 -105q0 -25 -5 -62t-11 -69q-13 -64 -29 -109t-42 -73.5t-64.5 -41.5t-95.5 -13z" />
<glyph unicode="p" horiz-adv-x="501" d="M310 499q83 0 122 -39q17 -18 24.5 -41t7.5 -61q0 -20 -4 -53t-15 -85q-9 -42 -16.5 -71t-16.5 -50.5t-20 -36.5t-25 -28q-27 -24 -62.5 -33.5t-89.5 -9.5q-93 0 -118 58h-2l-41 -215q-2 -11 -11 -11h-46q-10 0 -8 11l124 642q2 8 4.5 11t10.5 3h29q12 0 11 -14l-5 -39h2 q12 17 24.5 27t29.5 18q37 17 91 17zM292 444q-28 0 -55 -7.5t-44 -22.5q-10 -9 -17 -18.5t-12.5 -22.5t-10 -29.5t-8.5 -39.5l-23 -117q-6 -32 -4.5 -59.5t15.5 -47.5q12 -17 32 -25.5t56 -8.5q29 0 53.5 6.5t43.5 23.5q21 20 34.5 54t27.5 98q9 43 12.5 71.5t3.5 44.5 q0 23 -3.5 41t-14.5 32t-31.5 20.5t-54.5 6.5z" />
<glyph unicode="q" horiz-adv-x="480" d="M265 444q-38 0 -62 -10.5t-39 -31t-24 -51t-16 -69.5q-8 -45 -14.5 -82.5t-6.5 -69.5q0 -46 20.5 -65t66.5 -19q60 0 98 31t51 95l25 130q3 16 5 29.5t2 24.5q0 41 -27 64.5t-79 23.5zM339 -166q-2 -11 -13 -11h-45q-12 0 -9 13l46 210h-3q-23 -30 -54.5 -42.5 t-76.5 -12.5q-70 0 -108 30.5t-38 103.5q0 30 7.5 75t15.5 92q11 63 27 103t40 63.5t56 32t76 8.5q57 0 88.5 -18.5t41.5 -47.5h2l14 43q5 14 20 14h23q16 0 13 -16z" />
<glyph unicode="r" horiz-adv-x="313" d="M158 490q12 0 11 -10l-7 -53h2q25 32 56 48q30 15 72 15h31q8 0 10 -2.5t1 -9.5l-7 -34q-3 -11 -15 -11h-32q-29 0 -49 -7.5t-37 -22.5q-36 -31 -48 -98l-56 -292q-3 -13 -19 -13h-31q-18 0 -15 13l90 467q1 10 13 10h30z" />
<glyph unicode="s" horiz-adv-x="404" d="M153 -9q-31 0 -66.5 7t-69.5 21q-14 5 -9 19l9 28q5 14 20 7q64 -26 120 -26q40 0 68 11t42 40q7 14 10.5 28.5t3.5 33.5q0 21 -13.5 33t-47.5 23l-62 19q-92 28 -92 100q0 17 2.5 31t7.5 31q17 55 56.5 78.5t113.5 23.5q61 0 117 -19q16 -6 12 -18l-9 -29q-5 -14 -21 -8 q-24 9 -51 13.5t-52 4.5q-49 0 -70.5 -14t-32.5 -42q-5 -14 -7 -25t-2 -20q0 -18 10.5 -30.5t39.5 -21.5l66 -20q27 -8 45.5 -17t30 -21t17 -28.5t5.5 -39.5q0 -15 -4.5 -37.5t-11.5 -39.5q-23 -54 -67 -75t-108 -21z" />
<glyph unicode="t" horiz-adv-x="310" d="M303 490q9 0 8 -10l-7 -37q-2 -10 -12 -10h-107l-54 -289q-6 -31 -5.5 -49t11.5 -29q8 -8 21.5 -11t40.5 -3h42q5 0 8.5 -1.5t1.5 -9.5l-6 -30q-2 -11 -13 -11h-47q-33 0 -57.5 5.5t-39.5 18.5q-27 22 -27 68q0 11 2 25t4 27l53 289h-61q-10 0 -8 11l5 24q3 12 13 13 l62 9l22 113q2 12 14 12h41q12 0 10 -12l-22 -113h107z" />
<glyph unicode="u" horiz-adv-x="489" d="M459 490q13 0 10 -13l-60 -310q-10 -52 -23.5 -82t-37.5 -51q-26 -23 -60.5 -33t-90.5 -10q-74 0 -113 27.5t-39 88.5q0 13 2 27.5t5 31.5l60 310q3 14 17 14h37q14 0 11 -14l-59 -300q-7 -34 -7 -59q0 -35 20.5 -51.5t75.5 -16.5q34 0 57 7t40 24q17 16 25.5 37t16.5 60 l59 300q2 13 14 13h40z" />
<glyph unicode="v" horiz-adv-x="420" d="M138 0q-16 0 -25.5 7.5t-14.5 34.5q-19 106 -30.5 213t-16.5 221q0 8 4.5 11t9.5 3h38q7 0 10.5 -2t3.5 -10q3 -106 13.5 -210.5t28.5 -216.5h9q58 98 108.5 202t101.5 225q3 8 7 10t11 2h40q5 0 8 -3t0 -11q-48 -113 -102 -223t-118 -219q-12 -21 -24.5 -27.5 t-29.5 -6.5h-32z" />
<glyph unicode="w" horiz-adv-x="650" d="M383 466q14 0 19.5 -6.5t6.5 -23.5q3 -94 7 -186t10 -199h5q45 95 87.5 196.5t87.5 225.5q5 17 22 17h35q17 0 11 -17q-44 -104 -86.5 -212t-97.5 -220q-11 -25 -21.5 -33t-27.5 -8h-34q-18 0 -27 8.5t-11 32.5q-8 90 -11.5 180t-5.5 185h-5q-36 -93 -76.5 -183 t-82.5 -182q-11 -24 -22.5 -32.5t-29.5 -8.5h-34q-17 0 -25 8t-10 33q-4 51 -7 102t-5 104t-3 108.5t-1 117.5q0 17 17 17h33q16 0 16 -17q-5 -106 -2 -210t11 -212h5q43 89 82.5 183.5t87.5 201.5q14 30 37 30h45z" />
<glyph unicode="x" horiz-adv-x="432" d="M221 275q7 0 18 14l140 190q8 11 21 11h49q6 0 8 -3.5t-4 -12.5l-166 -213q-9 -13 -4 -27l101 -223q5 -11 -8 -11h-49q-10 0 -11 7l-86 201q-4 8 -7 12t-10 4h-6q-10 0 -21 -16l-141 -201q-4 -7 -13 -7h-52q-14 0 -6 11l169 228q11 14 5 28l-83 207q-3 8 0.5 12t9.5 4h38 q13 0 17 -11l71 -188q3 -8 5.5 -12t7.5 -4h7z" />
<glyph unicode="y" horiz-adv-x="413" d="M56 -140q23 39 44.5 75.5t41.5 71.5q-20 3 -33.5 17.5t-18.5 45.5q-13 82 -22 179.5t-16 228.5q0 12 13 12h42q12 0 12 -11q5 -128 13 -225.5t18 -172.5q3 -23 20 -24q27 50 52 100t49.5 101.5t48.5 107t50 116.5q3 8 13 8h45q7 0 8.5 -4t-0.5 -9q-40 -94 -77 -174.5 t-77 -160.5q-38 -76 -78.5 -150t-87.5 -155q-5 -9 -10.5 -12t-14.5 1l-31 12q-8 3 -8.5 9t4.5 13z" />
<glyph unicode="z" horiz-adv-x="405" d="M323 12q-3 -12 -16 -12h-301q-20 0 -16 19l2 10q2 10 7.5 19t18.5 25l295 360h-231q-12 0 -9 14l6 31q3 12 14 12h299q18 0 15 -19l-2 -13q-1 -5 -3 -9.5t-6.5 -10t-11 -13t-16.5 -19.5l-288 -349h240q13 0 10 -12z" />
<glyph unicode="{" horiz-adv-x="305" d="M124 164q3 18 3 31q0 29 -15 43.5t-44 25.5q-11 5 -8 17l5 26q3 13 14 16q41 9 63.5 29t30.5 63l30 153q13 67 42 96.5t75 29.5h42q8 0 9.5 -3t-0.5 -11l-5 -33q-1 -12 -14 -12h-32q-25 0 -37 -17.5t-21 -65.5l-28 -143q-11 -56 -34 -82.5t-68 -38.5v-3q29 -13 43 -31.5 t14 -51.5q0 -10 -1.5 -21.5t-3.5 -25.5l-26 -135q-3 -15 -4 -24t-1 -15q0 -29 35 -29h32q11 0 8 -12l-6 -33q-2 -8 -4 -11t-10 -3h-38q-38 0 -58.5 21t-20.5 56q0 11 1.5 23t3.5 26z" />
<glyph unicode="|" horiz-adv-x="209" d="M151 673q3 17 18 17h33q10 0 11.5 -6t0.5 -11l-131 -678q-3 -17 -17 -17h-33q-16 0 -13 17z" />
<glyph unicode="}" horiz-adv-x="305" d="M192 423q-3 -18 -3 -31q0 -29 15 -43.5t44 -25.5q11 -5 8 -17l-5 -26q-3 -13 -14 -16q-41 -9 -63.5 -29t-30.5 -63l-30 -153q-13 -67 -42 -96.5t-75 -29.5h-42q-8 0 -9.5 3t0.5 11l5 33q1 12 14 12h32q25 0 37 17.5t21 65.5l28 143q11 56 34 82.5t68 38.5v3 q-29 13 -43 31.5t-14 51.5q0 10 1.5 21.5t3.5 25.5l26 135q3 15 4 24t1 15q0 29 -35 29h-32q-11 0 -8 12l6 33q2 8 4 11t10 3h38q38 0 58.5 -21t20.5 -56q0 -11 -1.5 -23t-3.5 -26z" />
<glyph unicode="~" d="M216 311q-15 11 -25.5 17t-22.5 6q-19 0 -39.5 -15.5t-54.5 -59.5q-8 -11 -15 -12.5t-15 3.5l-20 13q-8 5 -9 10.5t7 16.5q43 60 81 88t74 28q26 0 44.5 -8.5t35.5 -21.5l53 -40q14 -11 24.5 -16.5t22.5 -5.5q22 0 45 20t50 57q8 11 14.5 11.5t13.5 -4.5l21 -15 q8 -5 9.5 -10.5t-5.5 -16.5q-21 -32 -41 -54t-38.5 -35t-37 -18.5t-36.5 -5.5q-30 0 -51 9.5t-36 20.5z" />
<glyph unicode="&#xa1;" horiz-adv-x="218" d="M35 0zM178.005 399.006q-34.998 0 -34.998 28.998q0 2 1 8.99902q1 7 4 22.999q3.99902 19.999 16.999 29.498q12.999 9.49902 32.998 9.49902h9.99902q34.998 0 34.998 -28.998q0 -2 -1.5 -10.999q-1.5 -9 -3.5 -20.999q-7.99902 -38.9971 -49.9971 -38.9971h-9.99902z M119.008 -141.961q-2.99902 -16.999 -18.998 -16.999h-52.9971q-9.99902 0 -10.999 5.99902q-1 6 0 11l101.993 470.971q3 16.999 18.999 16.999h32.998q13.999 0 10.999 -16.999z" />
<glyph unicode="&#xa2;" d="M389 34q1 -7 -1.5 -10.5t-12.5 -7.5q-26 -10 -57 -16t-60 -8l-15 -79q-3 -15 -17 -15h-18q-16 0 -13 15l15 79q-66 6 -97 39.5t-31 92.5q0 51 18 149q7 38 14.5 66.5t16.5 50.5t21 38t27 30q25 21 57 30.5t73 10.5l16 86q2 8 5 10.5t11 2.5h20q15 0 12 -13l-17 -89 q32 -5 58 -15.5t41 -21.5q10 -6 2 -19l-16 -24q-8 -12 -21 -3q-14 9 -35.5 17t-39.5 10l-77 -394q23 2 50 8t51 15q17 6 18 -10zM298 443q-35 0 -57 -12.5t-36.5 -35t-23.5 -55t-16 -73.5q-8 -45 -13 -78.5t-5 -56.5q0 -38 16.5 -59t57.5 -26z" />
<glyph unicode="&#xa3;" d="M494 574q-24 11 -49 17t-50 6q-55 0 -88.5 -25.5t-44.5 -87.5l-23 -120h175q19 0 16 -14l-8 -33q-3 -12 -20 -12h-176l-13 -68q-11 -54 -36.5 -98t-70.5 -78v-2h306q11 0 13.5 -3.5t0.5 -14.5l-5 -25q-3 -16 -19 -16h-384q-18 0 -15 14l4 21q2 10 8.5 15t17.5 13 q48 33 73 70t36 92l16 80h-53q-8 0 -10.5 3t-1.5 10l3 19q3 14 20 17l54 10l22 116q10 53 26 84.5t44 53.5q27 20 60.5 29t78.5 9q31 0 64.5 -8t57.5 -21q12 -6 6 -19l-13 -28q-7 -14 -22 -6z" />
<glyph unicode="&#xa4;" d="M341 127q-24 -13 -52 -20t-59 -7q-62 0 -103 32l-86 -70q-13 -12 -21 0l-21 24q-4 6 -3.5 10.5t8.5 11.5l84 70q-17 32 -17 74q0 40 14 75.5t40 64.5l-53 65q-5 7 -4 11.5t8 10.5l30 24q6 5 11 6t10 -6l54 -67q26 14 54.5 22t60.5 8q29 0 55 -8.5t46 -23.5l84 69 q7 7 11.5 6t9.5 -6l20 -24q4 -6 3.5 -10.5t-7.5 -11.5l-83 -68q19 -35 19 -76q0 -42 -15 -78t-41 -65l52 -62q5 -7 3.5 -11.5t-8.5 -10.5l-29 -24q-7 -5 -11.5 -6t-9.5 6zM285 404q-30 0 -56.5 -11.5t-46 -31t-30.5 -47t-11 -58.5q0 -42 27.5 -68t70.5 -26q30 0 56.5 11 t46 31t30.5 46.5t11 58.5q0 42 -27.5 68.5t-70.5 26.5z" />
<glyph unicode="&#xa5;" d="M206 288q-15 42 -27 82t-22 82t-18.5 87t-16.5 97q-1 7 3 9.5t9 2.5h44q14 0 17 -10q7 -46 15.5 -87t17.5 -80t19.5 -76.5t23.5 -76.5h7q28 39 53.5 76.5t50 76.5t48 80t49.5 87q5 10 19 10h44q5 0 8.5 -2.5t-0.5 -9.5q-30 -56 -56 -101.5t-51.5 -86t-53 -79.5t-58.5 -81 h94q9 0 11.5 -4t1.5 -11l-5 -28q-2 -10 -7 -11.5t-10 -1.5h-123l-12 -58h124q14 0 11 -15l-5 -28q-2 -10 -7.5 -11.5t-10.5 -1.5h-123l-19 -101q-3 -17 -20 -17h-39q-13 0 -10 17l19 101h-122q-9 0 -11.5 3.5t-0.5 11.5l5 26q2 7 5.5 11t12.5 4h122l12 58h-123 q-9 0 -11.5 3.5t-0.5 11.5l5 26q1 7 4.5 11t12.5 4h95z" />
<glyph unicode="&#xa6;" horiz-adv-x="209" d="M64 224q4 17 19 17h33q10 0 11.5 -4.5t-0.5 -12.5l-44 -229q-3 -17 -19 -17h-33q-14 0 -11 17zM151 673q3 17 18 17h31q17 0 14 -17l-44 -229q-3 -17 -17 -17h-33q-16 0 -13 17z" />
<glyph unicode="&#xa7;" horiz-adv-x="424" d="M65 301q0 51 25 82.5t69 44.5q-53 20 -53 74q0 16 1.5 28.5t6.5 28.5q15 51 55.5 74t114.5 23q32 0 59.5 -4.5t53.5 -13.5q11 -4 7 -17l-9 -29q-4 -13 -18 -8q-43 16 -96 16q-48 0 -73 -11.5t-34 -42.5q-5 -17 -5 -32q0 -20 13.5 -31t42.5 -18l58 -14q49 -12 69.5 -34 t20.5 -60q0 -48 -26.5 -82.5t-68.5 -49.5q30 -14 42.5 -34t12.5 -48q0 -16 -3 -34.5t-8 -35.5q-14 -45 -57 -63.5t-111 -18.5q-70 0 -131 24q-11 5 -7 17l9 29q4 13 18 8q27 -11 57 -16.5t57 -5.5q41 0 66.5 8t35.5 28q6 12 8.5 24t2.5 23q0 26 -13.5 37.5t-48.5 22.5 l-58 18q-41 13 -63 33t-22 60zM128 312q0 -22 11.5 -34t43.5 -22l43 -13q84 28 84 103q0 23 -13 35.5t-37 17.5l-53 12q-37 -14 -58 -36.5t-21 -62.5z" />
<glyph unicode="&#xa8;" horiz-adv-x="341" d="M175 701q37 0 37 -29v-7.5t-5 -25.5q-4 -20 -18 -29.5t-34 -9.5h-10q-16 0 -25.5 7t-9.5 21q0 2 0.5 8t4.5 26q4 19 17.5 29t32.5 10h10zM337 701q37 0 37 -29q0 -2 -1 -10.5t-4 -22.5q-4 -20 -18 -29.5t-34 -9.5h-10q-16 0 -25.5 7t-9.5 21q0 4 1.5 12t3.5 22 q3 19 16.5 29t33.5 10h10z" />
<glyph unicode="&#xa9;" horiz-adv-x="809" d="M499 181q2 -7 -2 -10.5t-15 -8.5q-27 -11 -50 -15t-46 -4q-42 0 -67 9t-39 26q-15 16 -21.5 38t-6.5 51q0 15 2.5 35t10.5 58q11 54 27.5 90.5t40.5 59.5q22 21 51 31.5t71 10.5q27 0 54 -8t48 -23q6 -5 6 -10.5t-4 -10.5l-14 -20q-5 -7 -9.5 -7.5t-8.5 2.5 q-18 12 -36 18t-40 6q-53 1 -80.5 -35t-42.5 -111q-6 -29 -8.5 -46t-2.5 -29q0 -29 11 -49q17 -32 70 -32q38 0 81 16q16 6 17 -5zM787 424q0 -95 -32 -175t-90.5 -138.5t-139.5 -91.5t-179 -33q-66 0 -121 20.5t-94.5 58.5t-61.5 90.5t-22 117.5q0 96 33 176t91.5 138 t139.5 90.5t176 32.5q66 0 121 -19.5t94.5 -56.5t62 -90t22.5 -120zM357 48q76 0 142 27t114.5 75t76.5 114t28 145q0 118 -65 178.5t-180 60.5q-82 0 -148 -29t-112.5 -79t-72 -116.5t-25.5 -140.5q0 -53 17.5 -96t49.5 -74t76.5 -48t98.5 -17z" />
<glyph unicode="&#xaa;" horiz-adv-x="310" d="M227 328q-14 -20 -33.5 -28t-45.5 -8h-21q-39 0 -56 14.5t-17 42.5q0 8 1.5 17.5t3.5 21.5q5 26 13 41.5t22 26.5q16 12 36 16.5t52 4.5h34q11 0 20.5 -0.5t17.5 -1.5l5 26q1 5 1.5 9.5t0.5 8.5q0 15 -7 22q-12 12 -51 12q-15 0 -34 -2.5t-37 -7.5q-13 -3 -14 7l-4 22 q-2 11 12 14q19 5 44 8.5t45 3.5q32 0 52 -4t33 -14q10 -8 13.5 -18t3.5 -22q0 -8 -1 -17.5t-3 -17.5l-38 -201q-2 -7 -9 -7h-33q-9 0 -8 7zM245 429q-7 1 -14 1.5t-15 0.5h-45q-12 0 -21.5 -1t-16.5 -6q-8 -5 -11.5 -13.5t-6.5 -21.5q-2 -9 -3 -16t-1 -11q0 -24 30 -24h23 q29 0 49 17t26 46z" />
<glyph unicode="&#xab;" horiz-adv-x="488" d="M0 79zM349 124q11 -12 1 -20l-21 -17q-9 -8 -24 5l-118 111q-9 9 -9 16q0 6 5 23q2 7 5.5 11t11.5 10l162 115q7 5 11.5 5t9.5 -5l18 -21q11 -11 -2 -20l-142 -112zM151 124q11 -12 1 -20l-21 -17q-9 -8 -24 5l-118 111q-9 9 -9 16q0 6 5 23q2 7 5.5 11t11.5 10l162 115 q7 5 11.5 5t9.5 -5l18 -21q11 -11 -2 -20l-142 -112z" />
<glyph unicode="&#xac;" d="M466 298q16 0 13 -15l-42 -225q-3 -15 -19 -15h-35q-14 0 -11 15l34 175h-361q-16 0 -13 15l6 35q3 15 19 15h409z" />
<glyph unicode="&#xad;" horiz-adv-x="297" d="M30 227zM250 294q9 0 11.5 -4t0.5 -11l-7 -39q-2 -10 -7.5 -11.5t-10.5 -1.5h-193q-9 0 -11.5 3.5t-0.5 11.5l7 37q2 7 5.5 11t12.5 4h193z" />
<glyph unicode="&#xae;" horiz-adv-x="809" d="M787 424q0 -95 -32 -175t-90.5 -138.5t-139.5 -91.5t-179 -33q-66 0 -121 20.5t-94.5 58.5t-61.5 90.5t-22 117.5q0 96 33 176t91.5 138t139.5 90.5t176 32.5q66 0 121 -19.5t94.5 -56.5t62 -90t22.5 -120zM357 48q76 0 142 27t114.5 75t76.5 114t28 145q0 118 -65 178.5 t-180 60.5q-82 0 -148 -29t-112.5 -79t-72 -116.5t-25.5 -140.5q0 -53 17.5 -96t49.5 -74t76.5 -48t98.5 -17zM405 310h-5h-26.5t-25.5 1l-30 -154q-1 -10 -11 -10h-42q-8 0 -7 10l73 377q2 9 8.5 14.5t14.5 6.5q23 3 42.5 4t48.5 1q26 0 49.5 -4t41.5 -14.5t29 -27.5 t11 -43q0 -13 -1.5 -27t-3.5 -25q-9 -42 -37 -68t-68 -34l55 -158q1 -5 -1.5 -8.5t-9.5 -3.5h-44q-8 0 -12 10zM397 507q-11 -1 -14 -14l-24 -129q21 -3 46 -3q50 0 73.5 17.5t30.5 52.5q2 8 2 15v14q0 25 -16 37t-53 12q-11 0 -24 -0.5t-21 -1.5z" />
<glyph unicode="&#xaf;" horiz-adv-x="339" d="M361 679q16 0 13 -15l-8 -35q-3 -13 -17 -13h-226q-14 0 -11 15l7 33q1 7 4.5 11t12.5 4h225z" />
<glyph unicode="&#xb0;" horiz-adv-x="321" d="M342 622q0 -29 -10 -55t-28.5 -45t-44 -30t-56.5 -11q-45 0 -73.5 26t-28.5 72q0 29 10 55t28.5 45t44 30t56.5 11q45 0 73.5 -26t28.5 -72zM283 613q0 23 -14 39.5t-37 16.5q-32 0 -52 -23t-20 -58q0 -27 14 -41.5t37 -14.5q32 0 52 23t20 58z" />
<glyph unicode="&#xb1;" d="M314 400h173q15 0 12 -15l-6 -37q-2 -8 -5.5 -10.5t-12.5 -2.5h-173l-33 -168q-2 -9 -5.5 -12t-11.5 -3h-37q-14 0 -11 15l33 168h-173q-15 0 -12 15l6 35q2 8 5.5 11.5t12.5 3.5h173l33 168q3 15 18 15h33q17 0 14 -15zM421 59q14 0 11 -15l-5 -31q-3 -13 -17 -13h-411 q-16 0 -13 15l5 29q3 15 19 15h411z" />
<glyph unicode="&#xb2;" horiz-adv-x="334" d="M242 742q-19 0 -35 -2.5t-30 -7.5q-12 -4 -15 8l-5 27q-1 9 10 13q19 6 40 9.5t48 3.5q48 0 78 -18.5t30 -60.5q0 -9 -1.5 -21t-4.5 -22q-8 -29 -27 -46t-58 -31l-49 -18q-32 -12 -47.5 -28t-20.5 -47l-1 -6h155q9 0 8 -8l-6 -31q-2 -9 -11 -9h-200q-16 0 -13 14l5 28 q5 27 12.5 47t18.5 35t27 25.5t39 19.5l53 20q29 11 43.5 24.5t14.5 44.5q0 19 -13 28t-45 9z" />
<glyph unicode="&#xb3;" horiz-adv-x="334" d="M109 496q4 11 15 7q14 -6 33.5 -10t38.5 -4q63 0 74 45q2 6 3 12t1 13q0 38 -69 38h-23q-9 0 -7 9l5 29q1 9 11 9h19q35 0 58 10t29 32q4 13 4 27q0 15 -12 23t-39 8q-15 0 -31 -2.5t-30 -7.5q-13 -3 -14 8l-4 26q-1 11 11 14q18 5 38 8t47 3q43 0 69 -16t27 -52 q0 -5 -1 -15.5t-3 -21.5q-12 -51 -64 -67v-3q20 -7 30 -20t10 -37q0 -8 -1.5 -18t-3.5 -18q-13 -51 -47 -68t-88 -17q-23 0 -49 4.5t-44 12.5q-7 3 -3 14z" />
<glyph unicode="&#xb4;" horiz-adv-x="308" d="M305 715q19 9 25 -7l13 -35q3 -8 -0.5 -12.5t-17.5 -9.5l-186 -66q-16 -6 -21 7l-8 19q-6 15 8 21z" />
<glyph unicode="&#xb6;" horiz-adv-x="555" d="M598 689q9 0 11 -3.5t0 -11.5l-5 -29q-2 -15 -18 -15h-63l-141 -731q-2 -11 -7.5 -13.5t-15.5 -2.5h-24q-11 0 -14 4.5t-1 11.5l141 731h-104l-141 -731q-2 -8 -6.5 -12t-17.5 -4h-32q-16 0 -13 16l82 429q-33 0 -59.5 11t-45.5 30.5t-29 45.5t-10 57q0 50 17.5 90 t48.5 68.5t73 43.5t90 15h284z" />
<glyph unicode="&#xb7;" horiz-adv-x="196" d="M2 241zM67 343q37 0 37 -28q0 -2 -1 -11.5t-4 -23.5q-8 -39 -51 -39h-10q-17 0 -26.5 7t-9.5 18q0 8 1 16t4 22q4 20 17 29.5t33 9.5h10z" />
<glyph unicode="&#xb8;" horiz-adv-x="270" d="M55 -64q8 2 18 2.5t19 0.5q26 0 43 -14.5t17 -44.5q0 -17 -3 -32q-5 -21 -13 -35t-26 -26q-14 -10 -35 -14t-46 -4q-16 0 -39.5 4t-41.5 11q-8 3 -5 12l7 20q4 11 15 8q15 -5 33 -8.5t32 -3.5q30 0 44 8q7 4 12.5 10t8.5 17q2 6 2 10v10q0 28 -34 28q-11 0 -24 -1.5 t-25 -3.5q-7 -1 -13 5l-7 9q-6 6 0 16l35 70q5 10 15 10h29q14 0 9 -11z" />
<glyph unicode="&#xb9;" horiz-adv-x="334" d="M95 447q-10 0 -9 11l5 27q1 10 13 10h78l45 238h-4l-77 -44q-7 -4 -13 4l-15 23q-6 8 4 14l91 52q15 8 34 8h35q10 0 13.5 -2.5t1.5 -10.5l-54 -282h78q10 0 9 -11l-4 -27q-1 -10 -13 -10h-218z" />
<glyph unicode="&#xba;" horiz-adv-x="328" d="M77 457q8 42 20 69.5t31 44.5q31 27 96 27q53 0 79.5 -19t26.5 -67q0 -12 -2 -28.5t-8 -50.5q-15 -82 -51 -114q-31 -27 -96 -27q-54 0 -80 19.5t-26 67.5q0 12 2 28t8 50zM131 447q-4 -21 -5.5 -34.5t-1.5 -24.5q0 -29 12 -40.5t41 -11.5q18 0 31.5 3.5t23.5 13.5 q12 12 19 33.5t14 54.5q5 21 6.5 35.5t1.5 25.5q0 29 -12.5 40.5t-40.5 11.5q-18 0 -31.5 -3.5t-23.5 -13.5q-22 -22 -34 -90z" />
<glyph unicode="&#xbb;" horiz-adv-x="488" d="M44 81zM306.013 340.008q-10.999 11.999 -1 19.998l20.999 16.999q8.99902 8 23.998 -4.99902l117.993 -110.993q8.99902 -9 8.99902 -15.999q0 -6 -4.99902 -22.999q-2 -6.99902 -5.5 -10.999t-11.499 -10l-161.99 -114.992q-7 -5 -11.499 -5q-4.5 0 -9.5 5 l-17.999 20.998q-10.999 11 2 19.999l141.991 111.993zM107.013 340.008q-10.999 11.999 -1 19.998l20.999 16.999q8.99902 8 23.998 -4.99902l117.993 -110.993q8.99902 -9 8.99902 -15.999q0 -6 -4.99902 -22.999q-2 -6.99902 -5.5 -10.999t-11.499 -10l-161.99 -114.992 q-7 -5 -11.499 -5q-4.5 0 -9.5 5l-17.999 20.998q-10.999 11 2 19.999l141.991 111.993z" />
<glyph unicode="&#xbc;" horiz-adv-x="784" d="M451 85q-14 0 -11 10l6 26q1 8 14 22l148 175q11 13 20 17.5t22 4.5h43q20 0 17 -18l-37 -189h37q8 0 7 -9l-6 -29q-2 -10 -11 -10h-36l-14 -76q-2 -9 -10 -9h-43q-10 0 -8 9l15 76h-153zM644 290h-2l-132 -157h103zM622 644q9 12 23 12h35q8 0 9 -5t-4 -12l-474 -636 q-9 -12 -22 -12h-35q-8 0 -9.5 4.5t4.5 12.5zM51 303q-10 0 -9 11l5 27q1 10 13 10h78l45 238h-4l-77 -44q-7 -4 -13 4l-15 23q-6 8 4 14l91 52q15 8 34 8h35q10 0 13.5 -2.5t1.5 -10.5l-54 -282h78q10 0 9 -11l-4 -27q-1 -10 -13 -10h-218z" />
<glyph unicode="&#xbd;" horiz-adv-x="784" d="M42 0zM622 644q9 12 23 12h35q8 0 9 -5t-4 -12l-474 -636q-9 -12 -22 -12h-35q-8 0 -9.5 4.5t4.5 12.5zM620 296q-19 0 -35 -2.5t-30 -7.5q-12 -4 -15 8l-5 27q-1 9 10 13q19 6 40 9.5t48 3.5q48 0 78 -18.5t30 -60.5q0 -9 -1.5 -21t-4.5 -22q-8 -29 -27 -46t-58 -31 l-49 -18q-32 -12 -47.5 -28t-20.5 -47l-1 -6h155q9 0 8 -8l-6 -31q-2 -9 -11 -9h-200q-16 0 -13 14l5 28q5 27 12.5 47t18.5 35t27 25.5t39 19.5l53 20q29 11 43.5 24.5t14.5 44.5q0 19 -13 28t-45 9zM52 304q-10 0 -9 11l5 27q1 10 13 10h78l45 238h-4l-77 -44q-7 -4 -13 4 l-15 23q-6 8 4 14l91 52q15 8 34 8h35q10 0 13.5 -2.5t1.5 -10.5l-54 -282h78q10 0 9 -11l-4 -27q-1 -10 -13 -10h-218z" />
<glyph unicode="&#xbe;" horiz-adv-x="784" d="M451 85q-14 0 -11 10l6 26q1 8 14 22l148 175q11 13 20 17.5t22 4.5h43q20 0 17 -18l-37 -189h37q8 0 7 -9l-6 -29q-2 -10 -11 -10h-36l-14 -76q-2 -9 -10 -9h-43q-10 0 -8 9l15 76h-153zM644 290h-2l-132 -157h103zM57 359q4 11 15 7q14 -6 33.5 -10t38.5 -4q63 0 74 45 q2 6 3 12t1 13q0 38 -69 38h-23q-9 0 -7 9l5 29q1 9 11 9h19q35 0 58 10t29 32q4 13 4 27q0 15 -12 23t-39 8q-15 0 -31 -2.5t-30 -7.5q-13 -3 -14 8l-4 26q-1 11 11 14q18 5 38 8t47 3q43 0 69 -16t27 -52q0 -5 -1 -15.5t-3 -21.5q-12 -51 -64 -67v-3q20 -7 30 -20t10 -37 q0 -8 -1.5 -18t-3.5 -18q-13 -51 -47 -68t-88 -17q-23 0 -49 4.5t-44 12.5q-7 3 -3 14zM622 644q9 12 23 12h35q8 0 9 -5t-4 -12l-474 -636q-9 -12 -22 -12h-35q-8 0 -9.5 4.5t4.5 12.5z" />
<glyph unicode="&#xbf;" horiz-adv-x="446" d="M35 0zM352.008 399.006q-34.998 0 -34.998 29.998q0 5 1 9.99902q1 5 4 20.999q4 19.999 16.999 29.498t32.998 9.49902h9.99902q15.999 0 25.499 -7.49902q9.49902 -7.5 9.49902 -21.499q0 -4.99902 -1 -10.499t-4 -21.499q-3.99902 -18.999 -17.499 -28.998 q-13.499 -9.99902 -32.4971 -9.99902h-10zM378.006 330.01q-3.99902 -30.998 -10.499 -57.9961q-6.49902 -26.999 -16.999 -49.4971q-10.499 -22.499 -26.498 -40.998t-40.998 -33.498l-67.9951 -36.9971q-54.9971 -29.998 -81.4951 -61.4961 q-26.499 -31.498 -26.499 -81.4951q0 -41.998 26.999 -58.9971q26.998 -16.999 80.9951 -16.999q60.9961 0 135.991 24.999q14.999 5 17.999 -8l7 -29.998q2.99902 -11.999 -10 -16.999q-35.9971 -12.999 -74.9951 -20.498q-38.998 -7.5 -83.9951 -7.5 q-84.9951 0 -128.492 31.998t-43.4971 91.9941q0 34.998 7.49902 61.9961q7.5 26.999 23.999 49.9971q16.499 22.999 43.4971 42.998q26.999 19.998 64.9961 41.9971l61.9961 34.998q19.999 10.999 32.498 22.498q12.499 11.5 20.999 26.999q8.49902 15.499 13.999 37.4971 q5.5 21.999 9.49902 52.9971q2 15.999 20.999 15.999h32.998q11.999 0 9.99902 -15.999z" />
<glyph unicode="&#xc0;" horiz-adv-x="559" d="M0 0zM373 647q27 0 34 -32q7 -35 13 -72.5t11 -76.5q14 -105 25 -217t19 -230q1 -10 -4.5 -14.5t-13.5 -4.5h-35q-19 0 -20 16q-2 47 -5.5 95t-7.5 94h-239q-11 -24 -21.5 -46.5l-21 -45t-21 -46.5t-22.5 -51q-7 -16 -24 -16h-35q-8 0 -12 4.5t0 14.5q51 115 106 228 t109 219q20 39 41 78t42 75q10 17 20 22.5t26 5.5h36zM263 442q-23 -47 -44.5 -91t-41.5 -89h208q-3 46 -7.5 89t-9.5 91q-4 33 -8.5 69t-10.5 71h-12q-20 -36 -39 -72t-35 -68zM445 745q13 -6 7 -18l-10 -23q-4 -11 -20 -5l-191 68q-10 4 -12 9.5t1 14.5l11 31q6 16 25 7z " />
<glyph unicode="&#xc1;" horiz-adv-x="559" d="M0 0zM373 647q27 0 34 -32q7 -35 13 -72.5t11 -76.5q14 -105 25 -217t19 -230q1 -10 -4.5 -14.5t-13.5 -4.5h-35q-19 0 -20 16q-2 47 -5.5 95t-7.5 94h-239q-11 -24 -21.5 -46.5l-21 -45t-21 -46.5t-22.5 -51q-7 -16 -24 -16h-35q-8 0 -12 4.5t0 14.5q51 115 106 228 t109 219q20 39 41 78t42 75q10 17 20 22.5t26 5.5h36zM263 442q-23 -47 -44.5 -91t-41.5 -89h208q-3 46 -7.5 89t-9.5 91q-4 33 -8.5 69t-10.5 71h-12q-20 -36 -39 -72t-35 -68zM482 829q19 9 25 -7l13 -35q3 -8 -0.5 -12.5t-17.5 -9.5l-186 -66q-16 -6 -21 7l-8 19 q-6 15 8 21z" />
<glyph unicode="&#xc2;" horiz-adv-x="559" d="M0 0zM373 647q27 0 34 -32q7 -35 13 -72.5t11 -76.5q14 -105 25 -217t19 -230q1 -10 -4.5 -14.5t-13.5 -4.5h-35q-19 0 -20 16q-2 47 -5.5 95t-7.5 94h-239q-11 -24 -21.5 -46.5l-21 -45t-21 -46.5t-22.5 -51q-7 -16 -24 -16h-35q-8 0 -12 4.5t0 14.5q51 115 106 228 t109 219q20 39 41 78t42 75q10 17 20 22.5t26 5.5h36zM263 442q-23 -47 -44.5 -91t-41.5 -89h208q-3 46 -7.5 89t-9.5 91q-4 33 -8.5 69t-10.5 71h-12q-20 -36 -39 -72t-35 -68zM403 850q5 0 8.5 -1.5t7.5 -6.5l84 -111q8 -11 -4 -20l-20 -15q-14 -8 -22 2l-75 84h-5 l-112 -86q-11 -10 -22 -2l-23 19q-11 7 3 19l129 110q5 5 10 6.5t10 1.5h31z" />
<glyph unicode="&#xc3;" horiz-adv-x="559" d="M0 0zM373 647q27 0 34 -32q7 -35 13 -72.5t11 -76.5q14 -105 25 -217t19 -230q1 -10 -4.5 -14.5t-13.5 -4.5h-35q-19 0 -20 16q-2 47 -5.5 95t-7.5 94h-239q-11 -24 -21.5 -46.5l-21 -45t-21 -46.5t-22.5 -51q-7 -16 -24 -16h-35q-8 0 -12 4.5t0 14.5q51 115 106 228 t109 219q20 39 41 78t42 75q10 17 20 22.5t26 5.5h36zM263 442q-23 -47 -44.5 -91t-41.5 -89h208q-3 46 -7.5 89t-9.5 91q-4 33 -8.5 69t-10.5 71h-12q-20 -36 -39 -72t-35 -68zM215 730q-10 7 -1 20q28 39 56.5 58t55.5 19q19 0 30.5 -4.5t25.5 -15.5l25 -20 q11 -9 17.5 -12.5t15.5 -3.5q12 0 26 11t35 34q10 12 20 3l17 -14q10 -7 0 -20q-27 -38 -56 -56.5t-58 -18.5q-17 0 -29.5 4.5t-24.5 14.5l-25 20q-9 8 -15 12t-14 4q-15 0 -28 -9t-35 -35q-10 -12 -22 -3z" />
<glyph unicode="&#xc4;" horiz-adv-x="559" d="M0 0zM373 647q27 0 34 -32q7 -35 13 -72.5t11 -76.5q14 -105 25 -217t19 -230q1 -10 -4.5 -14.5t-13.5 -4.5h-35q-19 0 -20 16q-2 47 -5.5 95t-7.5 94h-239q-11 -24 -21.5 -46.5l-21 -45t-21 -46.5t-22.5 -51q-7 -16 -24 -16h-35q-8 0 -12 4.5t0 14.5q51 115 106 228 t109 219q20 39 41 78t42 75q10 17 20 22.5t26 5.5h36zM263 442q-23 -47 -44.5 -91t-41.5 -89h208q-3 46 -7.5 89t-9.5 91q-4 33 -8.5 69t-10.5 71h-12q-20 -36 -39 -72t-35 -68zM308 823q37 0 37 -29v-7.5t-5 -25.5q-4 -20 -18 -29.5t-34 -9.5h-10q-16 0 -25.5 7t-9.5 21 q0 2 0.5 8t4.5 26q4 19 17.5 29t32.5 10h10zM470 823q37 0 37 -29q0 -2 -1 -10.5t-4 -22.5q-4 -20 -18 -29.5t-34 -9.5h-10q-16 0 -25.5 7t-9.5 21q0 4 1.5 12t3.5 22q3 19 16.5 29t33.5 10h10z" />
<glyph unicode="&#xc5;" horiz-adv-x="559" d="M0 0zM373 647q27 0 34 -32q7 -35 13 -72.5t11 -76.5q14 -105 25 -217t19 -230q1 -10 -4.5 -14.5t-13.5 -4.5h-35q-19 0 -20 16q-2 47 -5.5 95t-7.5 94h-239q-11 -24 -21.5 -46.5l-21 -45t-21 -46.5t-22.5 -51q-7 -16 -24 -16h-35q-8 0 -12 4.5t0 14.5q51 115 106 228 t109 219q20 39 41 78t42 75q10 17 20 22.5t26 5.5h36zM263 442q-23 -47 -44.5 -91t-41.5 -89h208q-3 46 -7.5 89t-9.5 91q-4 33 -8.5 69t-10.5 71h-12q-20 -36 -39 -72t-35 -68zM281 756q0 23 8.5 42.5t23.5 33.5t34.5 21.5t42.5 7.5q35 0 56 -21t21 -53q0 -49 -31.5 -78.5 t-76.5 -29.5q-36 0 -57 21t-21 56zM382 814q-23 0 -38 -15.5t-15 -38.5q0 -15 9.5 -24.5t26.5 -9.5q23 0 38.5 15.5t15.5 36.5q0 16 -10 26t-27 10z" />
<glyph unicode="&#xc6;" horiz-adv-x="819" d="M821 647q9 0 11.5 -3.5t0.5 -11.5l-6 -29q-2 -7 -5.5 -11t-12.5 -4h-273l-43 -224h242q17 0 14 -15l-6 -29q-3 -15 -20 -15h-242l-38 -195q-6 -29 5 -41q5 -5 13.5 -7.5t25.5 -2.5h225q14 0 11 -15l-5 -29q-3 -15 -19 -15h-228q-32 0 -51 5t-32 17q-12 12 -17 31t2 54 l19 95h-202l-123 -186q-9 -16 -24 -16h-39q-9 0 -12 5t3 14q64 96 118.5 175t103.5 149t95 133t94 128q17 22 35.5 32.5t50.5 10.5h329zM462 588q-36 -50 -65 -90.5t-56 -78t-53 -75.5t-56 -82h172l63 326h-5z" />
<glyph unicode="&#xc7;" horiz-adv-x="506" d="M247 -64q8 2 18 2.5t19 0.5q26 0 43 -14.5t17 -44.5q0 -17 -3 -32q-5 -21 -13 -35t-26 -26q-14 -10 -35 -14t-46 -4q-16 0 -39.5 4t-41.5 11q-8 3 -5 12l7 20q4 11 15 8q15 -5 33 -8.5t32 -3.5q30 0 44 8q7 4 12.5 10t8.5 17q2 6 2 10v10q0 28 -34 28q-11 0 -24 -1.5 t-25 -3.5q-7 -1 -13 5l-7 9q-6 6 0 16l35 70v2q-43 2 -75 12t-53 31t-31.5 54t-10.5 82q0 29 9 84t23 135q13 76 35.5 127.5t55 82t75.5 43.5t99 13q49 0 89.5 -12t72.5 -30q12 -7 4 -20l-15 -26q-5 -8 -10 -8t-13 5q-31 16 -62 24t-66 8q-75 0 -113 -32q-16 -14 -28 -31 t-22.5 -41.5t-19 -58t-16.5 -80.5q-12 -67 -18.5 -107.5t-6.5 -66.5q0 -22 1.5 -38t5 -27.5t9 -20t13.5 -16.5q17 -15 42 -22t67 -7q30 0 66 6.5t71 20.5q16 7 20 -7l7 -26q4 -15 -9 -20q-41 -15 -75.5 -22t-66.5 -9q0 -1 -0.5 -1.5t-0.5 -1.5z" />
<glyph unicode="&#xc8;" horiz-adv-x="476" d="M38 0zM137 0q-48 0 -73.5 16t-25.5 63q0 21 4.5 51t10.5 64q8 47 16 90t17 85t18.5 85.5t20.5 90.5q13 57 46 81q17 12 39.5 16.5t53.5 4.5h214q9 0 11.5 -3.5t0.5 -11.5l-6 -29q-2 -7 -5.5 -11t-12.5 -4h-209q-29 0 -43 -10q-8 -6 -12 -16t-8 -25q-5 -18 -9 -35.5 t-8.5 -38t-10 -44.5t-11.5 -55h244q9 0 11.5 -3.5t0.5 -11.5l-6 -29q-2 -7 -5.5 -11t-12.5 -4h-244q-14 -68 -21 -109.5t-11 -68.5q-3 -24 -3 -39q1 -29 45 -29h227q9 0 11 -4t0 -11l-5 -29q-2 -8 -5 -11.5t-12 -3.5h-232zM439 745q13 -6 7 -18l-10 -23q-4 -11 -20 -5 l-191 68q-10 4 -12 9.5t1 14.5l11 31q6 16 25 7z" />
<glyph unicode="&#xc9;" horiz-adv-x="476" d="M38 0zM137 0q-48 0 -73.5 16t-25.5 63q0 21 4.5 51t10.5 64q8 47 16 90t17 85t18.5 85.5t20.5 90.5q13 57 46 81q17 12 39.5 16.5t53.5 4.5h214q9 0 11.5 -3.5t0.5 -11.5l-6 -29q-2 -7 -5.5 -11t-12.5 -4h-209q-29 0 -43 -10q-8 -6 -12 -16t-8 -25q-5 -18 -9 -35.5 t-8.5 -38t-10 -44.5t-11.5 -55h244q9 0 11.5 -3.5t0.5 -11.5l-6 -29q-2 -7 -5.5 -11t-12.5 -4h-244q-14 -68 -21 -109.5t-11 -68.5q-3 -24 -3 -39q1 -29 45 -29h227q9 0 11 -4t0 -11l-5 -29q-2 -8 -5 -11.5t-12 -3.5h-232zM465 829q19 9 25 -7l13 -35q3 -8 -0.5 -12.5 t-17.5 -9.5l-186 -66q-16 -6 -21 7l-8 19q-6 15 8 21z" />
<glyph unicode="&#xca;" horiz-adv-x="476" d="M38 0zM137 0q-48 0 -73.5 16t-25.5 63q0 21 4.5 51t10.5 64q8 47 16 90t17 85t18.5 85.5t20.5 90.5q13 57 46 81q17 12 39.5 16.5t53.5 4.5h214q9 0 11.5 -3.5t0.5 -11.5l-6 -29q-2 -7 -5.5 -11t-12.5 -4h-209q-29 0 -43 -10q-8 -6 -12 -16t-8 -25q-5 -18 -9 -35.5 t-8.5 -38t-10 -44.5t-11.5 -55h244q9 0 11.5 -3.5t0.5 -11.5l-6 -29q-2 -7 -5.5 -11t-12.5 -4h-244q-14 -68 -21 -109.5t-11 -68.5q-3 -24 -3 -39q1 -29 45 -29h227q9 0 11 -4t0 -11l-5 -29q-2 -8 -5 -11.5t-12 -3.5h-232zM400 850q5 0 8.5 -1.5t7.5 -6.5l84 -111 q8 -11 -4 -20l-20 -15q-14 -8 -22 2l-75 84h-5l-112 -86q-11 -10 -22 -2l-23 19q-11 7 3 19l129 110q5 5 10 6.5t10 1.5h31z" />
<glyph unicode="&#xcb;" horiz-adv-x="476" d="M38 0zM137 0q-48 0 -73.5 16t-25.5 63q0 21 4.5 51t10.5 64q8 47 16 90t17 85t18.5 85.5t20.5 90.5q13 57 46 81q17 12 39.5 16.5t53.5 4.5h214q9 0 11.5 -3.5t0.5 -11.5l-6 -29q-2 -7 -5.5 -11t-12.5 -4h-209q-29 0 -43 -10q-8 -6 -12 -16t-8 -25q-5 -18 -9 -35.5 t-8.5 -38t-10 -44.5t-11.5 -55h244q9 0 11.5 -3.5t0.5 -11.5l-6 -29q-2 -7 -5.5 -11t-12.5 -4h-244q-14 -68 -21 -109.5t-11 -68.5q-3 -24 -3 -39q1 -29 45 -29h227q9 0 11 -4t0 -11l-5 -29q-2 -8 -5 -11.5t-12 -3.5h-232zM299 823q37 0 37 -29v-7.5t-5 -25.5 q-4 -20 -18 -29.5t-34 -9.5h-10q-16 0 -25.5 7t-9.5 21q0 2 0.5 8t4.5 26q4 19 17.5 29t32.5 10h10zM461 823q37 0 37 -29q0 -2 -1 -10.5t-4 -22.5q-4 -20 -18 -29.5t-34 -9.5h-10q-16 0 -25.5 7t-9.5 21q0 4 1.5 12t3.5 22q3 19 16.5 29t33.5 10h10z" />
<glyph unicode="&#xcc;" horiz-adv-x="225" d="M26 0zM148 630q4 17 18 17h39q10 0 12 -6t0 -11l-119 -613q-3 -17 -18 -17h-39q-15 0 -12 17zM255 745q13 -6 7 -18l-10 -23q-4 -11 -20 -5l-191 68q-10 4 -12 9.5t1 14.5l11 31q6 16 25 7z" />
<glyph unicode="&#xcd;" horiz-adv-x="225" d="M26 0zM148 630q4 17 18 17h39q10 0 12 -6t0 -11l-119 -613q-3 -17 -18 -17h-39q-15 0 -12 17zM330 829q19 9 25 -7l13 -35q3 -8 -0.5 -12.5t-17.5 -9.5l-186 -66q-16 -6 -21 7l-8 19q-6 15 8 21z" />
<glyph unicode="&#xce;" horiz-adv-x="225" d="M26 0zM148 630q4 17 18 17h39q10 0 12 -6t0 -11l-119 -613q-3 -17 -18 -17h-39q-15 0 -12 17zM234 850q5 0 8.5 -1.5t7.5 -6.5l84 -111q8 -11 -4 -20l-20 -15q-14 -8 -22 2l-75 84h-5l-112 -86q-11 -10 -22 -2l-23 19q-11 7 3 19l129 110q5 5 10 6.5t10 1.5h31z" />
<glyph unicode="&#xcf;" horiz-adv-x="225" d="M26 0zM148 630q4 17 18 17h39q10 0 12 -6t0 -11l-119 -613q-3 -17 -18 -17h-39q-15 0 -12 17zM142 823q37 0 37 -29v-7.5t-5 -25.5q-4 -20 -18 -29.5t-34 -9.5h-10q-16 0 -25.5 7t-9.5 21q0 2 0.5 8t4.5 26q4 19 17.5 29t32.5 10h10zM304 823q37 0 37 -29q0 -2 -1 -10.5 t-4 -22.5q-4 -20 -18 -29.5t-34 -9.5h-10q-16 0 -25.5 7t-9.5 21q0 4 1.5 12t3.5 22q3 19 16.5 29t33.5 10h10z" />
<glyph unicode="&#xd0;" horiz-adv-x="580" d="M46 0q-28 0 -22 25l54 279h-60q-9 0 -11.5 3.5t-0.5 11.5l5 28q2 7 5.5 11t12.5 4h61l50 257q2 11 6.5 16.5t16.5 7.5q24 4 62.5 6.5t73.5 2.5q127 0 188.5 -45.5t61.5 -154.5q0 -26 -5.5 -74.5t-21.5 -114.5q-19 -81 -53 -132t-82 -80.5t-110 -40t-136 -10.5h-95z M298 595q-28 0 -47.5 -0.5t-34.5 -2.5q-12 -1 -15 -15l-42 -215h132q9 0 11.5 -4t0.5 -11l-6 -30q-2 -10 -7 -11.5t-10 -1.5h-133l-45 -234q-3 -13 10 -13h53q61 0 108 11.5t82 37t59 66t38 97.5q13 51 20 93t7 82q0 43 -10.5 72.5t-32 46.5t-56 24.5t-82.5 7.5z" />
<glyph unicode="&#xd1;" horiz-adv-x="604" d="M19 0zM485 27q-3 -16 -12.5 -21.5t-26.5 -5.5h-44q-18 0 -26 5t-13 21l-160 554h-7l-110 -563q-3 -17 -19 -17h-34q-14 0 -11 17l117 603q3 16 10 21.5t27 5.5h45q17 0 26 -5.5t14 -22.5l161 -554h7l108 563q4 17 18 17h34q15 0 12 -17zM238 730q-10 7 -1 20 q28 39 56.5 58t55.5 19q19 0 30.5 -4.5t25.5 -15.5l25 -20q11 -9 17.5 -12.5t15.5 -3.5q12 0 26 11t35 34q10 12 20 3l17 -14q10 -7 0 -20q-27 -38 -56 -56.5t-58 -18.5q-17 0 -29.5 4.5t-24.5 14.5l-25 20q-9 8 -15 12t-14 4q-15 0 -28 -9t-35 -35q-10 -12 -22 -3z" />
<glyph unicode="&#xd2;" horiz-adv-x="586" d="M51 0zM461 310q13 56 17 91t4 64q0 66 -27 99t-100 33q-42 0 -69 -10t-50 -30q-19 -17 -32 -38.5t-23.5 -48.5t-18.5 -60t-17 -73q-11 -56 -16 -91t-5 -64q0 -34 5 -59t19.5 -41t39 -24t63.5 -8q45 0 78 15.5t57.5 47t42 80.5t32.5 117zM531 297q-18 -84 -42 -142.5 t-57.5 -95t-78.5 -52.5t-105 -16q-47 0 -83.5 8.5t-61.5 29.5t-38.5 55.5t-13.5 86.5q0 47 8 94t16 85q10 48 20.5 86.5t23.5 69t30.5 55t40.5 44.5q60 51 168 51q44 0 80.5 -9t62.5 -30t40 -55.5t14 -85.5q0 -47 -8 -94t-16 -85zM478 745q13 -6 7 -18l-10 -23 q-4 -11 -20 -5l-191 68q-10 4 -12 9.5t1 14.5l11 31q6 16 25 7z" />
<glyph unicode="&#xd3;" horiz-adv-x="586" d="M51 0zM461 310q13 56 17 91t4 64q0 66 -27 99t-100 33q-42 0 -69 -10t-50 -30q-19 -17 -32 -38.5t-23.5 -48.5t-18.5 -60t-17 -73q-11 -56 -16 -91t-5 -64q0 -34 5 -59t19.5 -41t39 -24t63.5 -8q45 0 78 15.5t57.5 47t42 80.5t32.5 117zM531 297q-18 -84 -42 -142.5 t-57.5 -95t-78.5 -52.5t-105 -16q-47 0 -83.5 8.5t-61.5 29.5t-38.5 55.5t-13.5 86.5q0 47 8 94t16 85q10 48 20.5 86.5t23.5 69t30.5 55t40.5 44.5q60 51 168 51q44 0 80.5 -9t62.5 -30t40 -55.5t14 -85.5q0 -47 -8 -94t-16 -85zM507 829q19 9 25 -7l13 -35 q3 -8 -0.5 -12.5t-17.5 -9.5l-186 -66q-16 -6 -21 7l-8 19q-6 15 8 21z" />
<glyph unicode="&#xd4;" horiz-adv-x="586" d="M51 0zM461 310q13 56 17 91t4 64q0 66 -27 99t-100 33q-42 0 -69 -10t-50 -30q-19 -17 -32 -38.5t-23.5 -48.5t-18.5 -60t-17 -73q-11 -56 -16 -91t-5 -64q0 -34 5 -59t19.5 -41t39 -24t63.5 -8q45 0 78 15.5t57.5 47t42 80.5t32.5 117zM531 297q-18 -84 -42 -142.5 t-57.5 -95t-78.5 -52.5t-105 -16q-47 0 -83.5 8.5t-61.5 29.5t-38.5 55.5t-13.5 86.5q0 47 8 94t16 85q10 48 20.5 86.5t23.5 69t30.5 55t40.5 44.5q60 51 168 51q44 0 80.5 -9t62.5 -30t40 -55.5t14 -85.5q0 -47 -8 -94t-16 -85zM434 850q5 0 8.5 -1.5t7.5 -6.5l84 -111 q8 -11 -4 -20l-20 -15q-14 -8 -22 2l-75 84h-5l-112 -86q-11 -10 -22 -2l-23 19q-11 7 3 19l129 110q5 5 10 6.5t10 1.5h31z" />
<glyph unicode="&#xd5;" horiz-adv-x="586" d="M51 0zM461 310q13 56 17 91t4 64q0 66 -27 99t-100 33q-42 0 -69 -10t-50 -30q-19 -17 -32 -38.5t-23.5 -48.5t-18.5 -60t-17 -73q-11 -56 -16 -91t-5 -64q0 -34 5 -59t19.5 -41t39 -24t63.5 -8q45 0 78 15.5t57.5 47t42 80.5t32.5 117zM531 297q-18 -84 -42 -142.5 t-57.5 -95t-78.5 -52.5t-105 -16q-47 0 -83.5 8.5t-61.5 29.5t-38.5 55.5t-13.5 86.5q0 47 8 94t16 85q10 48 20.5 86.5t23.5 69t30.5 55t40.5 44.5q60 51 168 51q44 0 80.5 -9t62.5 -30t40 -55.5t14 -85.5q0 -47 -8 -94t-16 -85zM243 730q-10 7 -1 20q28 39 56.5 58 t55.5 19q19 0 30.5 -4.5t25.5 -15.5l25 -20q11 -9 17.5 -12.5t15.5 -3.5q12 0 26 11t35 34q10 12 20 3l17 -14q10 -7 0 -20q-27 -38 -56 -56.5t-58 -18.5q-17 0 -29.5 4.5t-24.5 14.5l-25 20q-9 8 -15 12t-14 4q-15 0 -28 -9t-35 -35q-10 -12 -22 -3z" />
<glyph unicode="&#xd6;" horiz-adv-x="586" d="M51 0zM461 310q13 56 17 91t4 64q0 66 -27 99t-100 33q-42 0 -69 -10t-50 -30q-19 -17 -32 -38.5t-23.5 -48.5t-18.5 -60t-17 -73q-11 -56 -16 -91t-5 -64q0 -34 5 -59t19.5 -41t39 -24t63.5 -8q45 0 78 15.5t57.5 47t42 80.5t32.5 117zM531 297q-18 -84 -42 -142.5 t-57.5 -95t-78.5 -52.5t-105 -16q-47 0 -83.5 8.5t-61.5 29.5t-38.5 55.5t-13.5 86.5q0 47 8 94t16 85q10 48 20.5 86.5t23.5 69t30.5 55t40.5 44.5q60 51 168 51q44 0 80.5 -9t62.5 -30t40 -55.5t14 -85.5q0 -47 -8 -94t-16 -85zM334 823q37 0 37 -29v-7.5t-5 -25.5 q-4 -20 -18 -29.5t-34 -9.5h-10q-16 0 -25.5 7t-9.5 21q0 2 0.5 8t4.5 26q4 19 17.5 29t32.5 10h10zM496 823q37 0 37 -29q0 -2 -1 -10.5t-4 -22.5q-4 -20 -18 -29.5t-34 -9.5h-10q-16 0 -25.5 7t-9.5 21q0 4 1.5 12t3.5 22q3 19 16.5 29t33.5 10h10z" />
<glyph unicode="&#xd7;" d="M306 260l106 -129q5 -6 5.5 -10.5t-6.5 -11.5l-30 -26q-8 -7 -12 -7t-8 5l-110 133l-157 -132q-13 -11 -22 1l-19 24q-8 11 2 19l159 134l-104 127q-9 11 5 22l29 24q13 10 21 0l103 -128l154 129q12 9 21 -2l20 -23q9 -9 -2 -19z" />
<glyph unicode="&#xd8;" horiz-adv-x="586" d="M531 297q-18 -84 -42 -142.5t-57.5 -95t-78.5 -52.5t-105 -16q-69 0 -113 19l-52 -82q-5 -7 -8.5 -7.5t-9.5 2.5l-20 11q-10 6 -4 16l54 85q-44 42 -44 136q0 47 8 94t16 85q10 48 20.5 86.5t23.5 69t30.5 55t40.5 44.5q60 51 168 51q70 0 115 -22l56 87q7 11 18 5 l20 -11q10 -6 4 -16l-59 -93q21 -22 32 -53.5t11 -76.5q0 -47 -8 -94t-16 -85zM124 182q0 -26 2.5 -46t9.5 -36l302 478q-28 19 -83 19q-42 0 -69 -10t-50 -30q-19 -17 -32.5 -38.5t-23.5 -48.5t-18.5 -60t-16.5 -73q-12 -56 -16.5 -91t-4.5 -64zM461 310q13 56 17 91t4 64 q0 44 -12 74l-300 -474q28 -15 81 -15q45 0 78 15.5t57.5 47t42 80.5t32.5 117z" />
<glyph unicode="&#xd9;" horiz-adv-x="585" d="M53 0zM141 630q5 17 18 17h39q17 0 12 -17l-80 -413q-4 -21 -6 -38t-2 -31q0 -54 35.5 -76t94.5 -22q42 0 71 8t52 28q11 10 20 21.5t16 26.5t13 35t11 48l80 413q5 17 18 17h39q17 0 12 -17l-81 -420q-12 -62 -31 -103.5t-50 -67.5t-75 -37t-105 -11q-38 0 -72.5 7.5 t-60.5 25t-41 46.5t-15 73q0 15 1.5 32t5.5 35zM458 745q13 -6 7 -18l-10 -23q-4 -11 -20 -5l-191 68q-10 4 -12 9.5t1 14.5l11 31q6 16 25 7z" />
<glyph unicode="&#xda;" horiz-adv-x="585" d="M53 0zM141 630q5 17 18 17h39q17 0 12 -17l-80 -413q-4 -21 -6 -38t-2 -31q0 -54 35.5 -76t94.5 -22q42 0 71 8t52 28q11 10 20 21.5t16 26.5t13 35t11 48l80 413q5 17 18 17h39q17 0 12 -17l-81 -420q-12 -62 -31 -103.5t-50 -67.5t-75 -37t-105 -11q-38 0 -72.5 7.5 t-60.5 25t-41 46.5t-15 73q0 15 1.5 32t5.5 35zM474 829q19 9 25 -7l13 -35q3 -8 -0.5 -12.5t-17.5 -9.5l-186 -66q-16 -6 -21 7l-8 19q-6 15 8 21z" />
<glyph unicode="&#xdb;" horiz-adv-x="585" d="M53 0zM141 630q5 17 18 17h39q17 0 12 -17l-80 -413q-4 -21 -6 -38t-2 -31q0 -54 35.5 -76t94.5 -22q42 0 71 8t52 28q11 10 20 21.5t16 26.5t13 35t11 48l80 413q5 17 18 17h39q17 0 12 -17l-81 -420q-12 -62 -31 -103.5t-50 -67.5t-75 -37t-105 -11q-38 0 -72.5 7.5 t-60.5 25t-41 46.5t-15 73q0 15 1.5 32t5.5 35zM418 850q5 0 8.5 -1.5t7.5 -6.5l84 -111q8 -11 -4 -20l-20 -15q-14 -8 -22 2l-75 84h-5l-112 -86q-11 -10 -22 -2l-23 19q-11 7 3 19l129 110q5 5 10 6.5t10 1.5h31z" />
<glyph unicode="&#xdc;" horiz-adv-x="585" d="M53 0zM141 630q5 17 18 17h39q17 0 12 -17l-80 -413q-4 -21 -6 -38t-2 -31q0 -54 35.5 -76t94.5 -22q42 0 71 8t52 28q11 10 20 21.5t16 26.5t13 35t11 48l80 413q5 17 18 17h39q17 0 12 -17l-81 -420q-12 -62 -31 -103.5t-50 -67.5t-75 -37t-105 -11q-38 0 -72.5 7.5 t-60.5 25t-41 46.5t-15 73q0 15 1.5 32t5.5 35zM318 823q37 0 37 -29v-7.5t-5 -25.5q-4 -20 -18 -29.5t-34 -9.5h-10q-16 0 -25.5 7t-9.5 21q0 2 0.5 8t4.5 26q4 19 17.5 29t32.5 10h10zM480 823q37 0 37 -29q0 -2 -1 -10.5t-4 -22.5q-4 -20 -18 -29.5t-34 -9.5h-10 q-16 0 -25.5 7t-9.5 21q0 4 1.5 12t3.5 22q3 19 16.5 29t33.5 10h10z" />
<glyph unicode="&#xdd;" horiz-adv-x="453" d="M81 0zM180 220q-39 100 -64 201.5t-34 213.5q-1 12 13 12h44q14 0 15 -10q9 -98 24.5 -181.5t43.5 -164.5h7q59 85 111 168.5t99 177.5q5 10 18 10h44q6 0 9.5 -2.5t0.5 -9.5q-26 -55 -54.5 -106t-60 -101.5t-68 -102t-79.5 -107.5l-39 -201q-3 -17 -18 -17h-39 q-15 0 -12 17zM410 829q19 9 25 -7l13 -35q3 -8 -0.5 -12.5t-17.5 -9.5l-186 -66q-16 -6 -21 7l-8 19q-6 15 8 21z" />
<glyph unicode="&#xde;" horiz-adv-x="502" d="M210 206q86 0 131.5 29t63.5 96q6 21 8 39t2 30q0 29 -9.5 47.5t-28 29.5t-46 15t-63.5 4q-21 0 -43 -2.5t-44 -6.5l-54 -280q23 -1 42 -1h41zM116 147l-25 -130q-3 -17 -18 -17h-39q-15 0 -12 17l121 622q3 17 19 17h39q14 0 11 -17l-19 -91q20 3 43.5 5t43.5 2 q43 0 81 -7t66 -23.5t44 -44t16 -69.5q0 -17 -2.5 -42t-9.5 -51q-25 -93 -91.5 -132t-171.5 -39h-96z" />
<glyph unicode="&#xdf;" horiz-adv-x="509" d="M325 630q-30 0 -54 -8t-38 -19q-18 -14 -30 -38.5t-21 -69.5l-70 -361q-10 -51 -24 -100.5t-28 -85.5q-3 -8 -7.5 -10t-14.5 -2h-33q-15 0 -10 14q14 34 26.5 78t23.5 96l76 386q11 58 28 89.5t46 51.5q28 19 61 27t77 8q34 0 65 -8.5t51 -25.5q19 -16 29 -39.5t10 -58.5 q0 -13 -2 -28t-4 -28q-9 -51 -38 -85.5t-82 -50.5v-3q48 -8 74.5 -38t26.5 -79q0 -29 -5 -58.5t-12 -51.5q-23 -75 -80.5 -108t-128.5 -33q-32 0 -52.5 2t-40.5 7q-10 2 -12 6t0 12l8 28q3 8 7.5 9.5t10.5 -0.5q34 -8 77 -8q47 0 84.5 20.5t54.5 68.5q8 21 13 45.5t5 45.5 q0 25 -4.5 40.5t-15.5 28.5q-14 17 -40.5 24.5t-61.5 7.5h-31q-16 0 -13 13l6 30q3 14 17 14h11q35 0 60.5 8t45.5 23q23 17 33 40t16 49q2 10 3.5 23.5t1.5 19.5q0 44 -23.5 63t-71.5 19z" />
<glyph unicode="&#xe0;" horiz-adv-x="467" d="M26 0zM304 48h-2q-23 -32 -55 -44.5t-74 -12.5h-25q-122 0 -122 99q0 24 3.5 46.5t14.5 52.5q9 25 23 44t35.5 32t52.5 19.5t74 6.5h43q17 0 36.5 -1t36.5 -3l8 38q3 14 5.5 30t2.5 27q0 17 -4 28.5t-14.5 19t-29 10.5t-47.5 3q-33 0 -64.5 -5.5t-57.5 -13.5 q-19 -6 -22 11l-4 25q-1 13 13 17q32 9 72.5 15.5t72.5 6.5q71 0 110.5 -23t39.5 -80q0 -11 -2.5 -28.5t-5.5 -31.5l-63 -326q-1 -10 -12 -10h-33q-12 0 -10 12zM335 232q-18 2 -35 3t-37 1h-48q-25 0 -43 -3.5t-31.5 -12.5t-22.5 -23.5t-16 -36.5q-6 -19 -8.5 -34.5 t-2.5 -29.5q0 -50 68 -50h21q54 0 90 27t50 88zM386 631q13 -6 7 -18l-10 -23q-4 -11 -20 -5l-191 68q-10 4 -12 9.5t1 14.5l11 31q6 16 25 7z" />
<glyph unicode="&#xe1;" horiz-adv-x="467" d="M26 0zM304 48h-2q-23 -32 -55 -44.5t-74 -12.5h-25q-122 0 -122 99q0 24 3.5 46.5t14.5 52.5q9 25 23 44t35.5 32t52.5 19.5t74 6.5h43q17 0 36.5 -1t36.5 -3l8 38q3 14 5.5 30t2.5 27q0 17 -4 28.5t-14.5 19t-29 10.5t-47.5 3q-33 0 -64.5 -5.5t-57.5 -13.5 q-19 -6 -22 11l-4 25q-1 13 13 17q32 9 72.5 15.5t72.5 6.5q71 0 110.5 -23t39.5 -80q0 -11 -2.5 -28.5t-5.5 -31.5l-63 -326q-1 -10 -12 -10h-33q-12 0 -10 12zM335 232q-18 2 -35 3t-37 1h-48q-25 0 -43 -3.5t-31.5 -12.5t-22.5 -23.5t-16 -36.5q-6 -19 -8.5 -34.5 t-2.5 -29.5q0 -50 68 -50h21q54 0 90 27t50 88zM403 715q19 9 25 -7l13 -35q3 -8 -0.5 -12.5t-17.5 -9.5l-186 -66q-16 -6 -21 7l-8 19q-6 15 8 21z" />
<glyph unicode="&#xe2;" horiz-adv-x="467" d="M26 0zM304 48h-2q-23 -32 -55 -44.5t-74 -12.5h-25q-122 0 -122 99q0 24 3.5 46.5t14.5 52.5q9 25 23 44t35.5 32t52.5 19.5t74 6.5h43q17 0 36.5 -1t36.5 -3l8 38q3 14 5.5 30t2.5 27q0 17 -4 28.5t-14.5 19t-29 10.5t-47.5 3q-33 0 -64.5 -5.5t-57.5 -13.5 q-19 -6 -22 11l-4 25q-1 13 13 17q32 9 72.5 15.5t72.5 6.5q71 0 110.5 -23t39.5 -80q0 -11 -2.5 -28.5t-5.5 -31.5l-63 -326q-1 -10 -12 -10h-33q-12 0 -10 12zM335 232q-18 2 -35 3t-37 1h-48q-25 0 -43 -3.5t-31.5 -12.5t-22.5 -23.5t-16 -36.5q-6 -19 -8.5 -34.5 t-2.5 -29.5q0 -50 68 -50h21q54 0 90 27t50 88zM349 738q5 0 8.5 -1.5t7.5 -6.5l84 -119q8 -11 -4 -20l-20 -15q-14 -8 -22 2l-75 92h-5l-112 -94q-11 -10 -22 -2l-23 19q-11 7 3 19l129 118q5 5 10 6.5t10 1.5h31z" />
<glyph unicode="&#xe3;" horiz-adv-x="467" d="M26 0zM304 48h-2q-23 -32 -55 -44.5t-74 -12.5h-25q-122 0 -122 99q0 24 3.5 46.5t14.5 52.5q9 25 23 44t35.5 32t52.5 19.5t74 6.5h43q17 0 36.5 -1t36.5 -3l8 38q3 14 5.5 30t2.5 27q0 17 -4 28.5t-14.5 19t-29 10.5t-47.5 3q-33 0 -64.5 -5.5t-57.5 -13.5 q-19 -6 -22 11l-4 25q-1 13 13 17q32 9 72.5 15.5t72.5 6.5q71 0 110.5 -23t39.5 -80q0 -11 -2.5 -28.5t-5.5 -31.5l-63 -326q-1 -10 -12 -10h-33q-12 0 -10 12zM335 232q-18 2 -35 3t-37 1h-48q-25 0 -43 -3.5t-31.5 -12.5t-22.5 -23.5t-16 -36.5q-6 -19 -8.5 -34.5 t-2.5 -29.5q0 -50 68 -50h21q54 0 90 27t50 88zM157 609q-10 7 -1 20q28 39 56.5 58t55.5 19q19 0 30.5 -4.5t25.5 -15.5l25 -20q11 -9 17.5 -12.5t15.5 -3.5q12 0 26 11t35 34q10 12 20 3l17 -14q10 -7 0 -20q-27 -38 -56 -56.5t-58 -18.5q-32 0 -54 19l-25 20 q-8 8 -14.5 12t-14.5 4q-15 0 -28 -9t-35 -35q-10 -12 -22 -3z" />
<glyph unicode="&#xe4;" horiz-adv-x="467" d="M26 0zM304 48h-2q-23 -32 -55 -44.5t-74 -12.5h-25q-122 0 -122 99q0 24 3.5 46.5t14.5 52.5q9 25 23 44t35.5 32t52.5 19.5t74 6.5h43q17 0 36.5 -1t36.5 -3l8 38q3 14 5.5 30t2.5 27q0 17 -4 28.5t-14.5 19t-29 10.5t-47.5 3q-33 0 -64.5 -5.5t-57.5 -13.5 q-19 -6 -22 11l-4 25q-1 13 13 17q32 9 72.5 15.5t72.5 6.5q71 0 110.5 -23t39.5 -80q0 -11 -2.5 -28.5t-5.5 -31.5l-63 -326q-1 -10 -12 -10h-33q-12 0 -10 12zM335 232q-18 2 -35 3t-37 1h-48q-25 0 -43 -3.5t-31.5 -12.5t-22.5 -23.5t-16 -36.5q-6 -19 -8.5 -34.5 t-2.5 -29.5q0 -50 68 -50h21q54 0 90 27t50 88zM254 701q37 0 37 -29v-7.5t-5 -25.5q-4 -20 -18 -29.5t-34 -9.5h-10q-16 0 -25.5 7t-9.5 21q0 2 0.5 8t4.5 26q4 19 17.5 29t32.5 10h10zM416 701q37 0 37 -29q0 -2 -1 -10.5t-4 -22.5q-4 -20 -18 -29.5t-34 -9.5h-10 q-16 0 -25.5 7t-9.5 21q0 4 1.5 12t3.5 22q3 19 16.5 29t33.5 10h10z" />
<glyph unicode="&#xe5;" horiz-adv-x="467" d="M26 0zM304 48h-2q-23 -32 -55 -44.5t-74 -12.5h-25q-122 0 -122 99q0 24 3.5 46.5t14.5 52.5q9 25 23 44t35.5 32t52.5 19.5t74 6.5h43q17 0 36.5 -1t36.5 -3l8 38q3 14 5.5 30t2.5 27q0 17 -4 28.5t-14.5 19t-29 10.5t-47.5 3q-33 0 -64.5 -5.5t-57.5 -13.5 q-19 -6 -22 11l-4 25q-1 13 13 17q32 9 72.5 15.5t72.5 6.5q71 0 110.5 -23t39.5 -80q0 -11 -2.5 -28.5t-5.5 -31.5l-63 -326q-1 -10 -12 -10h-33q-12 0 -10 12zM335 232q-18 2 -35 3t-37 1h-48q-25 0 -43 -3.5t-31.5 -12.5t-22.5 -23.5t-16 -36.5q-6 -19 -8.5 -34.5 t-2.5 -29.5q0 -50 68 -50h21q54 0 90 27t50 88zM223 633q0 23 8.5 42.5t23.5 33.5t34.5 21.5t42.5 7.5q35 0 56 -21t21 -53q0 -49 -31.5 -78.5t-76.5 -29.5q-36 0 -57 21t-21 56zM324 691q-23 0 -38 -15.5t-15 -38.5q0 -15 9.5 -24.5t26.5 -9.5q23 0 38.5 15.5t15.5 36.5 q0 16 -10 26t-27 10z" />
<glyph unicode="&#xe6;" horiz-adv-x="737" d="M685 232q-3 -20 -29 -20l-258 1q-4 -20 -6.5 -40t-2.5 -36q0 -27 5.5 -44.5t18 -28t34 -14.5t54.5 -4q29 0 61.5 6t62.5 17q17 6 20 -8l5 -23q2 -7 -1 -11t-15 -9q-37 -14 -74 -20.5t-70 -6.5q-72 0 -105.5 19.5t-46.5 54.5q-25 -39 -68 -56.5t-97 -17.5h-25 q-122 0 -122 99q0 24 4.5 45.5t12.5 48.5q16 51 57.5 76.5t127.5 25.5h43q17 0 36.5 -1t36.5 -3l10 46q3 14 5 28.5t2 25.5q0 17 -4 28.5t-14.5 19t-29 10.5t-47.5 3q-33 0 -64.5 -5.5t-57.5 -13.5q-19 -6 -22 11l-4 25q-1 13 13 17q32 9 72.5 15.5t72.5 6.5q49 0 86 -13.5 t48 -48.5q22 32 56.5 47t90.5 15q70 0 109 -31t39 -101q0 -11 -1.5 -23.5t-3.5 -26.5zM334 227q-15 2 -33.5 3t-38.5 1h-48q-50 0 -75.5 -16t-37.5 -60q-5 -19 -7.5 -32.5t-2.5 -30.5q0 -46 68 -46h21q54 0 90 24.5t50 90.5zM548 444q-26 0 -46.5 -5t-35.5 -18 q-18 -16 -29.5 -42.5t-21.5 -76.5l-7 -37l203 -1q13 0 16 11l8 44q5 28 5 47q0 42 -20.5 60t-71.5 18z" />
<glyph unicode="&#xe7;" horiz-adv-x="418" d="M184 -64q8 2 18 2.5t19 0.5q26 0 43 -14.5t17 -44.5q0 -17 -3 -32q-5 -21 -13 -35t-26 -26q-14 -10 -35 -14t-46 -4q-16 0 -39.5 4t-41.5 11q-8 3 -5 12l7 20q4 11 15 8q15 -5 33 -8.5t32 -3.5q30 0 44 8q7 4 12.5 10t8.5 17q2 6 2 10v10q0 28 -34 28q-11 0 -24 -1.5 t-25 -3.5q-7 -1 -13 5l-7 9q-6 6 0 16l35 70q0 1 0.5 1.5t0.5 1.5q-63 7 -92 40t-29 99q0 29 7 71.5t17 90.5q23 113 80 159t142 46q35 0 70.5 -10.5t60.5 -26.5q10 -6 2 -19l-13 -22q-8 -13 -19 -7q-26 14 -50.5 22t-53.5 8q-31 0 -56 -8.5t-44.5 -28t-33.5 -52.5t-24 -81 q-8 -41 -14 -79t-6 -58q0 -26 5 -43.5t17.5 -28t33 -15t51.5 -4.5q26 0 55.5 6t55.5 16q14 5 17 -9l6 -25q2 -7 0 -10.5t-10 -6.5q-21 -8 -55 -16t-67 -10l-1 -2z" />
<glyph unicode="&#xe8;" horiz-adv-x="450" d="M38 0zM397 228q-3 -20 -29 -20h-258q-4 -20 -6 -37.5t-2 -33.5q0 -27 5.5 -44.5t18 -28t34 -14.5t54.5 -4q29 0 61.5 6t62.5 17q17 6 20 -8l5 -23q2 -7 -1 -11t-15 -9q-37 -14 -74 -20.5t-70 -6.5q-49 0 -81 9.5t-50.5 27t-26 42.5t-7.5 56q0 32 5.5 71.5t12.5 77.5 q13 71 29 114t44 69q25 23 59 32t82 9q70 0 109 -31t39 -101q0 -11 -1.5 -23.5t-3.5 -26.5zM261 444q-26 0 -46.5 -4.5t-35.5 -17.5q-18 -16 -29.5 -43t-21.5 -77l-8 -42h203q13 0 16 11l8 42q3 14 4.5 28t1.5 25q0 42 -20.5 60t-71.5 18zM379 631q13 -6 7 -18l-10 -23 q-4 -11 -20 -5l-191 68q-10 4 -12 9.5t1 14.5l11 31q6 16 25 7z" />
<glyph unicode="&#xe9;" horiz-adv-x="450" d="M38 0zM397 228q-3 -20 -29 -20h-258q-4 -20 -6 -37.5t-2 -33.5q0 -27 5.5 -44.5t18 -28t34 -14.5t54.5 -4q29 0 61.5 6t62.5 17q17 6 20 -8l5 -23q2 -7 -1 -11t-15 -9q-37 -14 -74 -20.5t-70 -6.5q-49 0 -81 9.5t-50.5 27t-26 42.5t-7.5 56q0 32 5.5 71.5t12.5 77.5 q13 71 29 114t44 69q25 23 59 32t82 9q70 0 109 -31t39 -101q0 -11 -1.5 -23.5t-3.5 -26.5zM261 444q-26 0 -46.5 -4.5t-35.5 -17.5q-18 -16 -29.5 -43t-21.5 -77l-8 -42h203q13 0 16 11l8 42q3 14 4.5 28t1.5 25q0 42 -20.5 60t-71.5 18zM402 715q19 9 25 -7l13 -35 q3 -8 -0.5 -12.5t-17.5 -9.5l-186 -66q-16 -6 -21 7l-8 19q-6 15 8 21z" />
<glyph unicode="&#xea;" horiz-adv-x="450" d="M38 0zM397 228q-3 -20 -29 -20h-258q-4 -20 -6 -37.5t-2 -33.5q0 -27 5.5 -44.5t18 -28t34 -14.5t54.5 -4q29 0 61.5 6t62.5 17q17 6 20 -8l5 -23q2 -7 -1 -11t-15 -9q-37 -14 -74 -20.5t-70 -6.5q-49 0 -81 9.5t-50.5 27t-26 42.5t-7.5 56q0 32 5.5 71.5t12.5 77.5 q13 71 29 114t44 69q25 23 59 32t82 9q70 0 109 -31t39 -101q0 -11 -1.5 -23.5t-3.5 -26.5zM261 444q-26 0 -46.5 -4.5t-35.5 -17.5q-18 -16 -29.5 -43t-21.5 -77l-8 -42h203q13 0 16 11l8 42q3 14 4.5 28t1.5 25q0 42 -20.5 60t-71.5 18zM329 738q5 0 8.5 -1.5t7.5 -6.5 l84 -119q8 -11 -4 -20l-20 -15q-14 -8 -22 2l-75 92h-5l-112 -94q-11 -10 -22 -2l-23 19q-11 7 3 19l129 118q5 5 10 6.5t10 1.5h31z" />
<glyph unicode="&#xeb;" horiz-adv-x="450" d="M38 0zM397 228q-3 -20 -29 -20h-258q-4 -20 -6 -37.5t-2 -33.5q0 -27 5.5 -44.5t18 -28t34 -14.5t54.5 -4q29 0 61.5 6t62.5 17q17 6 20 -8l5 -23q2 -7 -1 -11t-15 -9q-37 -14 -74 -20.5t-70 -6.5q-49 0 -81 9.5t-50.5 27t-26 42.5t-7.5 56q0 32 5.5 71.5t12.5 77.5 q13 71 29 114t44 69q25 23 59 32t82 9q70 0 109 -31t39 -101q0 -11 -1.5 -23.5t-3.5 -26.5zM261 444q-26 0 -46.5 -4.5t-35.5 -17.5q-18 -16 -29.5 -43t-21.5 -77l-8 -42h203q13 0 16 11l8 42q3 14 4.5 28t1.5 25q0 42 -20.5 60t-71.5 18zM238 701q37 0 37 -29v-7.5 t-5 -25.5q-4 -20 -18 -29.5t-34 -9.5h-10q-16 0 -25.5 7t-9.5 21q0 2 0.5 8t4.5 26q4 19 17.5 29t32.5 10h10zM400 701q37 0 37 -29q0 -2 -1 -10.5t-4 -22.5q-4 -20 -18 -29.5t-34 -9.5h-10q-16 0 -25.5 7t-9.5 21q0 4 1.5 12t3.5 22q3 19 16.5 29t33.5 10h10z" />
<glyph unicode="&#xec;" horiz-adv-x="226" d="M13 0zM103 8q-2 -8 -10 -8h-48q-8 0 -7 8l91 471q3 11 14 11h41q12 0 10 -11zM241 631q13 -6 7 -18l-10 -23q-4 -11 -20 -5l-191 68q-10 4 -12 9.5t1 14.5l11 31q6 16 25 7z" />
<glyph unicode="&#xed;" horiz-adv-x="226" d="M37 0zM103 8q-2 -8 -10 -8h-48q-8 0 -7 8l91 471q3 11 14 11h41q12 0 10 -11zM317 715q19 9 25 -7l13 -35q3 -8 -0.5 -12.5t-17.5 -9.5l-186 -66q-16 -6 -21 7l-8 19q-6 15 8 21z" />
<glyph unicode="&#xee;" horiz-adv-x="226" d="M29 0zM103 8q-2 -8 -10 -8h-48q-8 0 -7 8l91 471q3 11 14 11h41q12 0 10 -11zM223 738q5 0 8.5 -1.5t7.5 -6.5l84 -119q8 -11 -4 -20l-20 -15q-14 -8 -22 2l-75 92h-5l-112 -94q-11 -10 -22 -2l-23 19q-11 7 3 19l129 118q5 5 10 6.5t10 1.5h31z" />
<glyph unicode="&#xef;" horiz-adv-x="226" d="M37 0zM103 8q-2 -8 -10 -8h-48q-8 0 -7 8l91 471q3 11 14 11h41q12 0 10 -11zM122 701q37 0 37 -29v-7.5t-5 -25.5q-4 -20 -18 -29.5t-34 -9.5h-10q-16 0 -25.5 7t-9.5 21q0 2 0.5 8t4.5 26q4 19 17.5 29t32.5 10h10zM284 701q37 0 37 -29q0 -2 -1 -10.5t-4 -22.5 q-4 -20 -18 -29.5t-34 -9.5h-10q-16 0 -25.5 7t-9.5 21q0 4 1.5 12t3.5 22q3 19 16.5 29t33.5 10h10z" />
<glyph unicode="&#xf0;" horiz-adv-x="481" d="M244 620q-14 11 -30 20t-31 16q-5 2 -6.5 8t3.5 13l15 20q8 11 20 5q23 -11 43.5 -22.5t40.5 -27.5l77 43q13 7 20 -5l8 -13q7 -11 -7 -20l-64 -37q37 -37 58 -82t29 -97q8 -54 5 -112t-14 -120q-11 -58 -25 -99.5t-38.5 -68t-63 -39t-97.5 -12.5q-83 0 -116.5 34.5 t-33.5 99.5q0 8 1.5 25t4.5 38.5t6.5 45.5t6.5 46q8 52 23 87t38 56.5t54.5 30.5t72.5 9q43 0 72 -14.5t43 -34.5l2 2q-15 117 -81 174l-103 -57q-6 -3 -9.5 -2.5t-8.5 8.5l-7 12q-5 8 -3 12.5t8 8.5zM342 203q8 38 10 58.5t2 33.5q0 54 -26.5 82t-77.5 28q-37 0 -60 -9.5 t-37 -27.5t-21.5 -44.5t-12.5 -61.5t-10.5 -70t-5.5 -55q0 -22 4 -39t14.5 -28t28.5 -17t46 -6q33 0 56 5.5t39.5 22.5t28 47.5t22.5 80.5z" />
<glyph unicode="&#xf1;" horiz-adv-x="497" d="M22 0zM165 437q10 12 22 22t30 20q19 10 41 15t60 5q48 0 76 -11.5t43 -35.5t16.5 -58.5t-9.5 -90.5l-55 -289q-1 -5 -4 -9.5t-11 -4.5h-35q-11 0 -14 3t-1 14l56 292q9 46 9 71t-11 40q-10 14 -27.5 19.5t-49.5 5.5q-34 0 -57 -7.5t-43 -24.5t-34 -43t-22 -69l-55 -286 q-2 -7 -5 -11t-12 -4h-34q-17 0 -14 15l89 465q1 10 13 10h30q12 0 11 -10l-5 -43h2zM178 609q-10 7 -1 20q28 39 56.5 58t55.5 19q19 0 30.5 -4.5t25.5 -15.5l25 -20q11 -9 17.5 -12.5t15.5 -3.5q12 0 26 11t35 34q10 12 20 3l17 -14q10 -7 0 -20q-27 -38 -56 -56.5 t-58 -18.5q-32 0 -54 19l-25 20q-8 8 -14.5 12t-14.5 4q-15 0 -28 -9t-35 -35q-10 -12 -22 -3z" />
<glyph unicode="&#xf2;" horiz-adv-x="479" d="M38 0zM204 46q42 0 68.5 14t44 41t28 66t19.5 89q5 27 8.5 54t3.5 47q0 47 -23.5 67t-76.5 20q-42 0 -68.5 -14t-44 -41t-28 -66t-19.5 -89q-5 -27 -8.5 -54t-3.5 -47q0 -49 24.5 -68t75.5 -19zM195 -9q-78 0 -117.5 33t-39.5 107q0 25 5 62t11 69q13 64 29 109t42 73.5 t64.5 41.5t95.5 13q86 0 121.5 -35t35.5 -105q0 -25 -5 -62t-11 -69q-13 -64 -29 -109t-42 -73.5t-64.5 -41.5t-95.5 -13zM391 631q13 -6 7 -18l-10 -23q-4 -11 -20 -5l-191 68q-10 4 -12 9.5t1 14.5l11 31q6 16 25 7z" />
<glyph unicode="&#xf3;" horiz-adv-x="479" d="M38 0zM204 46q42 0 68.5 14t44 41t28 66t19.5 89q5 27 8.5 54t3.5 47q0 47 -23.5 67t-76.5 20q-42 0 -68.5 -14t-44 -41t-28 -66t-19.5 -89q-5 -27 -8.5 -54t-3.5 -47q0 -49 24.5 -68t75.5 -19zM195 -9q-78 0 -117.5 33t-39.5 107q0 25 5 62t11 69q13 64 29 109t42 73.5 t64.5 41.5t95.5 13q86 0 121.5 -35t35.5 -105q0 -25 -5 -62t-11 -69q-13 -64 -29 -109t-42 -73.5t-64.5 -41.5t-95.5 -13zM423 715q19 9 25 -7l13 -35q3 -8 -0.5 -12.5t-17.5 -9.5l-186 -66q-16 -6 -21 7l-8 19q-6 15 8 21z" />
<glyph unicode="&#xf4;" horiz-adv-x="479" d="M38 0zM204 46q42 0 68.5 14t44 41t28 66t19.5 89q5 27 8.5 54t3.5 47q0 47 -23.5 67t-76.5 20q-42 0 -68.5 -14t-44 -41t-28 -66t-19.5 -89q-5 -27 -8.5 -54t-3.5 -47q0 -49 24.5 -68t75.5 -19zM195 -9q-78 0 -117.5 33t-39.5 107q0 25 5 62t11 69q13 64 29 109t42 73.5 t64.5 41.5t95.5 13q86 0 121.5 -35t35.5 -105q0 -25 -5 -62t-11 -69q-13 -64 -29 -109t-42 -73.5t-64.5 -41.5t-95.5 -13zM351 738q5 0 8.5 -1.5t7.5 -6.5l84 -119q8 -11 -4 -20l-20 -15q-14 -8 -22 2l-75 92h-5l-112 -94q-11 -10 -22 -2l-23 19q-11 7 3 19l129 118 q5 5 10 6.5t10 1.5h31z" />
<glyph unicode="&#xf5;" horiz-adv-x="479" d="M38 0zM204 46q42 0 68.5 14t44 41t28 66t19.5 89q5 27 8.5 54t3.5 47q0 47 -23.5 67t-76.5 20q-42 0 -68.5 -14t-44 -41t-28 -66t-19.5 -89q-5 -27 -8.5 -54t-3.5 -47q0 -49 24.5 -68t75.5 -19zM195 -9q-78 0 -117.5 33t-39.5 107q0 25 5 62t11 69q13 64 29 109t42 73.5 t64.5 41.5t95.5 13q86 0 121.5 -35t35.5 -105q0 -25 -5 -62t-11 -69q-13 -64 -29 -109t-42 -73.5t-64.5 -41.5t-95.5 -13zM156 609q-10 7 -1 20q28 39 56.5 58t55.5 19q19 0 30.5 -4.5t25.5 -15.5l25 -20q11 -9 17.5 -12.5t15.5 -3.5q12 0 26 11t35 34q10 12 20 3l17 -14 q10 -7 0 -20q-27 -38 -56 -56.5t-58 -18.5q-32 0 -54 19l-25 20q-8 8 -14.5 12t-14.5 4q-15 0 -28 -9t-35 -35q-10 -12 -22 -3z" />
<glyph unicode="&#xf6;" horiz-adv-x="479" d="M38 0zM204 46q42 0 68.5 14t44 41t28 66t19.5 89q5 27 8.5 54t3.5 47q0 47 -23.5 67t-76.5 20q-42 0 -68.5 -14t-44 -41t-28 -66t-19.5 -89q-5 -27 -8.5 -54t-3.5 -47q0 -49 24.5 -68t75.5 -19zM195 -9q-78 0 -117.5 33t-39.5 107q0 25 5 62t11 69q13 64 29 109t42 73.5 t64.5 41.5t95.5 13q86 0 121.5 -35t35.5 -105q0 -25 -5 -62t-11 -69q-13 -64 -29 -109t-42 -73.5t-64.5 -41.5t-95.5 -13zM246 701q37 0 37 -29v-7.5t-5 -25.5q-4 -20 -18 -29.5t-34 -9.5h-10q-16 0 -25.5 7t-9.5 21q0 2 0.5 8t4.5 26q4 19 17.5 29t32.5 10h10zM408 701 q37 0 37 -29q0 -2 -1 -10.5t-4 -22.5q-4 -20 -18 -29.5t-34 -9.5h-10q-16 0 -25.5 7t-9.5 21q0 4 1.5 12t3.5 22q3 19 16.5 29t33.5 10h10z" />
<glyph unicode="&#xf7;" d="M466 290q9 0 11 -3.5t0 -11.5l-5 -31q-1 -13 -18 -13h-411q-9 0 -11.5 3.5t-0.5 11.5l5 29q3 15 19 15h411zM233 138q39 0 39 -32q0 -2 -0.5 -7.5t-5.5 -27.5q-9 -41 -54 -41h-10q-39 0 -39 30q0 2 0.5 8t5.5 29q4 20 18.5 30.5t35.5 10.5h10zM301 491q39 0 39 -32 q0 -2 -0.5 -7.5t-5.5 -27.5q-9 -41 -54 -41h-10q-39 0 -39 30q0 2 0.5 8t5.5 29q4 20 18.5 30.5t35.5 10.5h10z" />
<glyph unicode="&#xf8;" horiz-adv-x="479" d="M195 -9q-18 0 -34 2t-30 5l-34 -63q-7 -16 -20 -12l-17 4q-13 4 -5 19l36 68q-53 33 -53 117q0 25 5 62t11 69q13 64 29 109t42 73.5t64.5 41.5t95.5 13q38 0 65 -7l34 63q7 16 20 12l18 -4q12 -4 5 -19l-37 -68q52 -33 52 -117q0 -25 -5 -62t-11 -69q-13 -64 -29 -109 t-42 -73.5t-64.5 -41.5t-95.5 -13zM104 133q0 -43 18 -62l199 368q-20 5 -45 5q-42 0 -68.5 -14t-44 -41t-28 -66t-19.5 -89q-5 -27 -8.5 -54t-3.5 -47zM204 46q42 0 68.5 14t44 41t28 66t19.5 89q5 27 8.5 54t3.5 47q0 39 -18 60l-199 -367q17 -4 45 -4z" />
<glyph unicode="&#xf9;" horiz-adv-x="489" d="M45 0zM459 490q13 0 10 -13l-60 -310q-10 -52 -23.5 -82t-37.5 -51q-26 -23 -60.5 -33t-90.5 -10q-74 0 -113 27.5t-39 88.5q0 13 2 27.5t5 31.5l60 310q3 14 17 14h37q14 0 11 -14l-59 -300q-7 -34 -7 -59q0 -35 20.5 -51.5t75.5 -16.5q34 0 57 7t40 24q17 16 25.5 37 t16.5 60l59 300q2 13 14 13h40zM370 631q13 -6 7 -18l-10 -23q-4 -11 -20 -5l-191 68q-10 4 -12 9.5t1 14.5l11 31q6 16 25 7z" />
<glyph unicode="&#xfa;" horiz-adv-x="489" d="M45 0zM459 490q13 0 10 -13l-60 -310q-10 -52 -23.5 -82t-37.5 -51q-26 -23 -60.5 -33t-90.5 -10q-74 0 -113 27.5t-39 88.5q0 13 2 27.5t5 31.5l60 310q3 14 17 14h37q14 0 11 -14l-59 -300q-7 -34 -7 -59q0 -35 20.5 -51.5t75.5 -16.5q34 0 57 7t40 24q17 16 25.5 37 t16.5 60l59 300q2 13 14 13h40zM433 715q19 9 25 -7l13 -35q3 -8 -0.5 -12.5t-17.5 -9.5l-186 -66q-16 -6 -21 7l-8 19q-6 15 8 21z" />
<glyph unicode="&#xfb;" horiz-adv-x="489" d="M45 0zM459 490q13 0 10 -13l-60 -310q-10 -52 -23.5 -82t-37.5 -51q-26 -23 -60.5 -33t-90.5 -10q-74 0 -113 27.5t-39 88.5q0 13 2 27.5t5 31.5l60 310q3 14 17 14h37q14 0 11 -14l-59 -300q-7 -34 -7 -59q0 -35 20.5 -51.5t75.5 -16.5q34 0 57 7t40 24q17 16 25.5 37 t16.5 60l59 300q2 13 14 13h40zM350 738q5 0 8.5 -1.5t7.5 -6.5l84 -119q8 -11 -4 -20l-20 -15q-14 -8 -22 2l-75 92h-5l-112 -94q-11 -10 -22 -2l-23 19q-11 7 3 19l129 118q5 5 10 6.5t10 1.5h31z" />
<glyph unicode="&#xfc;" horiz-adv-x="489" d="M45 0zM459 490q13 0 10 -13l-60 -310q-10 -52 -23.5 -82t-37.5 -51q-26 -23 -60.5 -33t-90.5 -10q-74 0 -113 27.5t-39 88.5q0 13 2 27.5t5 31.5l60 310q3 14 17 14h37q14 0 11 -14l-59 -300q-7 -34 -7 -59q0 -35 20.5 -51.5t75.5 -16.5q34 0 57 7t40 24q17 16 25.5 37 t16.5 60l59 300q2 13 14 13h40zM254 701q37 0 37 -29v-7.5t-5 -25.5q-4 -20 -18 -29.5t-34 -9.5h-10q-16 0 -25.5 7t-9.5 21q0 2 0.5 8t4.5 26q4 19 17.5 29t32.5 10h10zM416 701q37 0 37 -29q0 -2 -1 -10.5t-4 -22.5q-4 -20 -18 -29.5t-34 -9.5h-10q-16 0 -25.5 7t-9.5 21 q0 4 1.5 12t3.5 22q3 19 16.5 29t33.5 10h10z" />
<glyph unicode="&#xfd;" horiz-adv-x="413" d="M51 0zM56 -140q23 39 44.5 75.5t41.5 71.5q-20 3 -33.5 17.5t-18.5 45.5q-13 82 -22 179.5t-16 228.5q0 12 13 12h42q12 0 12 -11q5 -128 13 -225.5t18 -172.5q3 -23 20 -24q27 50 52 100t49.5 101.5t48.5 107t50 116.5q3 8 13 8h45q7 0 8.5 -4t-0.5 -9 q-40 -94 -77 -174.5t-77 -160.5q-38 -76 -78.5 -150t-87.5 -155q-5 -9 -10.5 -12t-14.5 1l-31 12q-8 3 -8.5 9t4.5 13zM373 715q19 9 25 -7l13 -35q3 -8 -0.5 -12.5t-17.5 -9.5l-186 -66q-16 -6 -21 7l-8 19q-6 15 8 21z" />
<glyph unicode="&#xfe;" horiz-adv-x="501" d="M172 445h2q11 12 21 21t24 16q37 17 91 17q83 0 122 -39q17 -18 24.5 -41t7.5 -61q0 -20 -4 -53t-15 -85q-9 -42 -16.5 -71t-16.5 -50.5t-20 -36.5t-25 -28q-27 -24 -62.5 -33.5t-89.5 -9.5q-93 0 -118 58h-2l-41 -215q-2 -11 -11 -11h-46q-10 0 -8 11l161 829 q2 8 4.5 11t10.5 3h39q14 0 11 -14zM292 444q-28 0 -55 -7.5t-44 -22.5q-10 -9 -17 -18.5t-12.5 -22.5t-10 -29.5t-8.5 -39.5l-23 -117q-6 -32 -4.5 -59.5t15.5 -47.5q12 -17 32 -25.5t56 -8.5q29 0 53.5 6.5t43.5 23.5q21 20 34.5 54t27.5 98q9 43 12.5 71.5t3.5 44.5 q0 23 -3.5 41t-14.5 32t-31.5 20.5t-54.5 6.5z" />
<glyph unicode="&#xff;" horiz-adv-x="413" d="M51 0zM56 -140q23 39 44.5 75.5t41.5 71.5q-20 3 -33.5 17.5t-18.5 45.5q-13 82 -22 179.5t-16 228.5q0 12 13 12h42q12 0 12 -11q5 -128 13 -225.5t18 -172.5q3 -23 20 -24q27 50 52 100t49.5 101.5t48.5 107t50 116.5q3 8 13 8h45q7 0 8.5 -4t-0.5 -9 q-40 -94 -77 -174.5t-77 -160.5q-38 -76 -78.5 -150t-87.5 -155q-5 -9 -10.5 -12t-14.5 1l-31 12q-8 3 -8.5 9t4.5 13zM203 701q37 0 37 -29v-7.5t-5 -25.5q-4 -20 -18 -29.5t-34 -9.5h-10q-16 0 -25.5 7t-9.5 21q0 2 0.5 8t4.5 26q4 19 17.5 29t32.5 10h10zM365 701 q37 0 37 -29q0 -2 -1 -10.5t-4 -22.5q-4 -20 -18 -29.5t-34 -9.5h-10q-16 0 -25.5 7t-9.5 21q0 4 1.5 12t3.5 22q3 19 16.5 29t33.5 10h10z" />
<glyph unicode="&#x100;" horiz-adv-x="559" d="M0 0zM373 647q27 0 34 -32q7 -35 13 -72.5t11 -76.5q14 -105 25 -217t19 -230q1 -10 -4.5 -14.5t-13.5 -4.5h-35q-19 0 -20 16q-2 47 -5.5 95t-7.5 94h-239q-11 -24 -21.5 -46.5l-21 -45t-21 -46.5t-22.5 -51q-7 -16 -24 -16h-35q-8 0 -12 4.5t0 14.5q51 115 106 228 t109 219q20 39 41 78t42 75q10 17 20 22.5t26 5.5h36zM263 442q-23 -47 -44.5 -91t-41.5 -89h208q-3 46 -7.5 89t-9.5 91q-4 33 -8.5 69t-10.5 71h-12q-20 -36 -39 -72t-35 -68zM496 792q16 0 13 -15l-8 -35q-3 -13 -17 -13h-226q-14 0 -11 15l7 33q2 7 5 11t12 4h225z" />
<glyph unicode="&#x101;" horiz-adv-x="467" d="M26 0zM304 48h-2q-23 -32 -55 -44.5t-74 -12.5h-25q-122 0 -122 99q0 24 3.5 46.5t14.5 52.5q9 25 23 44t35.5 32t52.5 19.5t74 6.5h43q17 0 36.5 -1t36.5 -3l8 38q3 14 5.5 30t2.5 27q0 17 -4 28.5t-14.5 19t-29 10.5t-47.5 3q-33 0 -64.5 -5.5t-57.5 -13.5 q-19 -6 -22 11l-4 25q-1 13 13 17q32 9 72.5 15.5t72.5 6.5q71 0 110.5 -23t39.5 -80q0 -11 -2.5 -28.5t-5.5 -31.5l-63 -326q-1 -10 -12 -10h-33q-12 0 -10 12zM335 232q-18 2 -35 3t-37 1h-48q-25 0 -43 -3.5t-31.5 -12.5t-22.5 -23.5t-16 -36.5q-6 -19 -8.5 -34.5 t-2.5 -29.5q0 -50 68 -50h21q54 0 90 27t50 88zM429 679q16 0 13 -15l-8 -35q-3 -13 -17 -13h-226q-14 0 -11 15l7 33q1 7 4.5 11t12.5 4h225z" />
<glyph unicode="&#x102;" horiz-adv-x="559" d="M0 0zM373 647q27 0 34 -32q7 -35 13 -72.5t11 -76.5q14 -105 25 -217t19 -230q1 -10 -4.5 -14.5t-13.5 -4.5h-35q-19 0 -20 16q-2 47 -5.5 95t-7.5 94h-239q-11 -24 -21.5 -46.5l-21 -45t-21 -46.5t-22.5 -51q-7 -16 -24 -16h-35q-8 0 -12 4.5t0 14.5q51 115 106 228 t109 219q20 39 41 78t42 75q10 17 20 22.5t26 5.5h36zM263 442q-23 -47 -44.5 -91t-41.5 -89h208q-3 46 -7.5 89t-9.5 91q-4 33 -8.5 69t-10.5 71h-12q-20 -36 -39 -72t-35 -68zM365 691q-54 0 -88.5 26t-39.5 81q0 8 2 13.5t10 7.5l30 8q16 5 18 -11q4 -38 23 -54t51 -16 q30 0 55 15.5t49 57.5q7 12 20 8l26 -8q8 -2 8.5 -6.5t-2.5 -11.5q-25 -56 -66.5 -83t-95.5 -27z" />
<glyph unicode="&#x103;" horiz-adv-x="467" d="M26 0zM304 48h-2q-23 -32 -55 -44.5t-74 -12.5h-25q-122 0 -122 99q0 24 3.5 46.5t14.5 52.5q9 25 23 44t35.5 32t52.5 19.5t74 6.5h43q17 0 36.5 -1t36.5 -3l8 38q3 14 5.5 30t2.5 27q0 17 -4 28.5t-14.5 19t-29 10.5t-47.5 3q-33 0 -64.5 -5.5t-57.5 -13.5 q-19 -6 -22 11l-4 25q-1 13 13 17q32 9 72.5 15.5t72.5 6.5q71 0 110.5 -23t39.5 -80q0 -11 -2.5 -28.5t-5.5 -31.5l-63 -326q-1 -10 -12 -10h-33q-12 0 -10 12zM335 232q-18 2 -35 3t-37 1h-48q-25 0 -43 -3.5t-31.5 -12.5t-22.5 -23.5t-16 -36.5q-6 -19 -8.5 -34.5 t-2.5 -29.5q0 -50 68 -50h21q54 0 90 27t50 88zM315 575q-54 0 -88.5 26t-39.5 81q0 8 2 13.5t10 7.5l30 8q16 5 18 -11q4 -38 23 -54t51 -16q30 0 55 15.5t49 57.5q7 12 20 8l26 -8q8 -2 8.5 -6.5t-2.5 -11.5q-25 -56 -66.5 -83t-95.5 -27z" />
<glyph unicode="&#x104;" horiz-adv-x="561" d="M374 647q27 0 34 -32q8 -36 14 -73t11 -76q14 -103 25 -214t17 -226q1 -10 -2 -15.5t-13 -10.5q-37 -20 -64.5 -48t-27.5 -64q0 -15 8.5 -23.5t28.5 -8.5q13 0 26 3t24 8q13 6 13 -5v-28q0 -6 -1.5 -9t-9.5 -6q-16 -7 -35 -11t-42 -4q-40 0 -61.5 17t-21.5 52q0 37 27 77 t78 66q-2 52 -5.5 97.5t-7.5 91.5h-239q-11 -24 -21.5 -46.5l-21 -45t-21 -46.5t-22.5 -51q-7 -16 -24 -16h-35q-8 0 -12 4.5t0 14.5q51 115 106.5 229.5t109.5 217.5q20 39 39 74t39 72q11 21 22 28t27 7h38zM265 442q-23 -47 -45.5 -91t-42.5 -89h208q-3 46 -8 89t-10 91 q-4 33 -8.5 69t-9.5 71h-12q-19 -35 -37 -71t-35 -69z" />
<glyph unicode="&#x105;" horiz-adv-x="467" d="M304 48h-2q-23 -32 -55 -44.5t-74 -12.5h-25q-122 0 -122 99q0 24 3.5 46.5t14.5 52.5q9 25 23 44t35.5 32t52.5 19.5t74 6.5h43q17 0 36.5 -1t36.5 -3l8 38q3 14 5.5 30t2.5 27q0 17 -4 28.5t-14.5 19t-29 10.5t-47.5 3q-33 0 -64.5 -5.5t-57.5 -13.5q-19 -6 -22 11 l-4 25q-1 13 13 17q32 9 72.5 15.5t72.5 6.5q71 0 110.5 -23t39.5 -80q0 -11 -2.5 -28.5t-5.5 -31.5l-62 -321q-2 -8 -4 -11.5t-7 -6.5q-40 -26 -65 -54t-25 -61q0 -26 37 -26q23 0 48 10q13 6 13 -5l2 -27q0 -6 -1.5 -9t-9.5 -6q-17 -7 -35 -11t-42 -4q-39 0 -61 16t-22 48 q0 21 9.5 41t25 38t36.5 34.5t45 30.5zM335 232q-18 2 -35 3t-37 1h-48q-25 0 -43 -3.5t-31.5 -12.5t-22.5 -23.5t-16 -36.5q-6 -19 -8.5 -34.5t-2.5 -29.5q0 -50 68 -50h21q54 0 90 27t50 88z" />
<glyph unicode="&#x106;" horiz-adv-x="506" d="M51 0zM348 656q49 0 89.5 -12t72.5 -30q12 -7 4 -20l-15 -26q-5 -8 -10 -8t-13 5q-31 16 -62 24t-66 8q-75 0 -113 -32q-16 -14 -28 -31t-22.5 -41.5t-19 -58t-16.5 -80.5q-12 -67 -18.5 -107.5t-6.5 -66.5q0 -22 1.5 -38t5 -27.5t9 -20t13.5 -16.5q17 -15 42 -22t67 -7 q30 0 66 6.5t71 20.5q16 7 20 -7l7 -26q4 -15 -9 -20q-48 -17 -86.5 -24.5t-76.5 -7.5q-51 0 -89 8t-63.5 28.5t-38 55.5t-12.5 88q0 29 9 84t23 135q13 76 35.5 127.5t55 82t75.5 43.5t99 13zM490 829q19 9 25 -7l13 -35q3 -8 -0.5 -12.5t-17.5 -9.5l-186 -66q-16 -6 -21 7 l-8 19q-6 15 8 21z" />
<glyph unicode="&#x107;" horiz-adv-x="418" d="M38 0zM344 34q2 -7 0 -10.5t-10 -6.5q-23 -9 -61.5 -17.5t-73.5 -8.5q-84 0 -122.5 32.5t-38.5 108.5q0 29 7 71.5t17 90.5q23 113 80 159t142 46q35 0 70.5 -10.5t60.5 -26.5q10 -6 2 -19l-13 -22q-8 -13 -19 -7q-26 14 -50.5 22t-53.5 8q-31 0 -56 -8.5t-44.5 -28 t-33.5 -52.5t-24 -81q-8 -41 -14 -79t-6 -58q0 -26 5 -43.5t17.5 -28t33 -15t51.5 -4.5q26 0 55.5 6t55.5 16q14 5 17 -9zM437 715q19 9 25 -7l13 -35q3 -8 -0.5 -12.5t-17.5 -9.5l-186 -66q-16 -6 -21 7l-8 19q-6 15 8 21z" />
<glyph unicode="&#x108;" horiz-adv-x="506" d="M51 0zM348 656q49 0 89.5 -12t72.5 -30q12 -7 4 -20l-15 -26q-5 -8 -10 -8t-13 5q-31 16 -62 24t-66 8q-75 0 -113 -32q-16 -14 -28 -31t-22.5 -41.5t-19 -58t-16.5 -80.5q-12 -67 -18.5 -107.5t-6.5 -66.5q0 -22 1.5 -38t5 -27.5t9 -20t13.5 -16.5q17 -15 42 -22t67 -7 q30 0 66 6.5t71 20.5q16 7 20 -7l7 -26q4 -15 -9 -20q-48 -17 -86.5 -24.5t-76.5 -7.5q-51 0 -89 8t-63.5 28.5t-38 55.5t-12.5 88q0 29 9 84t23 135q13 76 35.5 127.5t55 82t75.5 43.5t99 13zM412 850q5 0 8.5 -1.5t7.5 -6.5l84 -111q8 -11 -4 -20l-20 -15q-14 -8 -22 2 l-75 84h-5l-112 -86q-11 -10 -22 -2l-23 19q-11 7 3 19l129 110q5 5 10 6.5t10 1.5h31z" />
<glyph unicode="&#x109;" horiz-adv-x="418" d="M38 0zM344 34q2 -7 0 -10.5t-10 -6.5q-23 -9 -61.5 -17.5t-73.5 -8.5q-84 0 -122.5 32.5t-38.5 108.5q0 29 7 71.5t17 90.5q23 113 80 159t142 46q35 0 70.5 -10.5t60.5 -26.5q10 -6 2 -19l-13 -22q-8 -13 -19 -7q-26 14 -50.5 22t-53.5 8q-31 0 -56 -8.5t-44.5 -28 t-33.5 -52.5t-24 -81q-8 -41 -14 -79t-6 -58q0 -26 5 -43.5t17.5 -28t33 -15t51.5 -4.5q26 0 55.5 6t55.5 16q14 5 17 -9zM352 738q5 0 8.5 -1.5t7.5 -6.5l84 -119q8 -11 -4 -20l-20 -15q-14 -8 -22 2l-75 92h-5l-112 -94q-11 -10 -22 -2l-23 19q-11 7 3 19l129 118 q5 5 10 6.5t10 1.5h31z" />
<glyph unicode="&#x10a;" horiz-adv-x="506" d="M51 0zM348 656q49 0 89.5 -12t72.5 -30q12 -7 4 -20l-15 -26q-5 -8 -10 -8t-13 5q-31 16 -62 24t-66 8q-75 0 -113 -32q-16 -14 -28 -31t-22.5 -41.5t-19 -58t-16.5 -80.5q-12 -67 -18.5 -107.5t-6.5 -66.5q0 -22 1.5 -38t5 -27.5t9 -20t13.5 -16.5q17 -15 42 -22t67 -7 q30 0 66 6.5t71 20.5q16 7 20 -7l7 -26q4 -15 -9 -20q-48 -17 -86.5 -24.5t-76.5 -7.5q-51 0 -89 8t-63.5 28.5t-38 55.5t-12.5 88q0 29 9 84t23 135q13 76 35.5 127.5t55 82t75.5 43.5t99 13zM319 746q0 29 19.5 51.5t51.5 22.5q24 0 37.5 -13.5t13.5 -37.5 q0 -15 -6.5 -27.5t-16.5 -21.5t-23.5 -14.5t-26.5 -5.5q-20 0 -34.5 13t-14.5 33z" />
<glyph unicode="&#x10b;" horiz-adv-x="418" d="M38 0zM344 34q2 -7 0 -10.5t-10 -6.5q-23 -9 -61.5 -17.5t-73.5 -8.5q-84 0 -122.5 32.5t-38.5 108.5q0 29 7 71.5t17 90.5q23 113 80 159t142 46q35 0 70.5 -10.5t60.5 -26.5q10 -6 2 -19l-13 -22q-8 -13 -19 -7q-26 14 -50.5 22t-53.5 8q-31 0 -56 -8.5t-44.5 -28 t-33.5 -52.5t-24 -81q-8 -41 -14 -79t-6 -58q0 -26 5 -43.5t17.5 -28t33 -15t51.5 -4.5q26 0 55.5 6t55.5 16q14 5 17 -9zM256 633q0 29 19.5 51.5t51.5 22.5q24 0 37.5 -13.5t13.5 -37.5q0 -15 -6.5 -27.5t-16.5 -21.5t-23.5 -14.5t-26.5 -5.5q-20 0 -34.5 13t-14.5 33z " />
<glyph unicode="&#x10c;" horiz-adv-x="506" d="M51 0zM348 656q49 0 89.5 -12t72.5 -30q12 -7 4 -20l-15 -26q-5 -8 -10 -8t-13 5q-31 16 -62 24t-66 8q-75 0 -113 -32q-16 -14 -28 -31t-22.5 -41.5t-19 -58t-16.5 -80.5q-12 -67 -18.5 -107.5t-6.5 -66.5q0 -22 1.5 -38t5 -27.5t9 -20t13.5 -16.5q17 -15 42 -22t67 -7 q30 0 66 6.5t71 20.5q16 7 20 -7l7 -26q4 -15 -9 -20q-48 -17 -86.5 -24.5t-76.5 -7.5q-51 0 -89 8t-63.5 28.5t-38 55.5t-12.5 88q0 29 9 84t23 135q13 76 35.5 127.5t55 82t75.5 43.5t99 13zM360 700q-5 0 -8.5 1.5t-7.5 6.5l-84 119q-8 11 4 20l20 15q14 8 22 -2l75 -92 h5l112 94q11 10 22 2l23 -19q11 -7 -3 -19l-129 -118q-5 -5 -10 -6.5t-10 -1.5h-31z" />
<glyph unicode="&#x10d;" horiz-adv-x="418" d="M38 0zM344 34q2 -7 0 -10.5t-10 -6.5q-23 -9 -61.5 -17.5t-73.5 -8.5q-84 0 -122.5 32.5t-38.5 108.5q0 29 7 71.5t17 90.5q23 113 80 159t142 46q35 0 70.5 -10.5t60.5 -26.5q10 -6 2 -19l-13 -22q-8 -13 -19 -7q-26 14 -50.5 22t-53.5 8q-31 0 -56 -8.5t-44.5 -28 t-33.5 -52.5t-24 -81q-8 -41 -14 -79t-6 -58q0 -26 5 -43.5t17.5 -28t33 -15t51.5 -4.5q26 0 55.5 6t55.5 16q14 5 17 -9zM287 571q-5 0 -8.5 1.5t-7.5 6.5l-84 119q-8 11 4 20l20 15q14 8 22 -2l75 -92h5l112 94q11 10 22 2l23 -19q11 -7 -3 -19l-129 -118q-5 -5 -10 -6.5 t-10 -1.5h-31z" />
<glyph unicode="&#x10e;" horiz-adv-x="580" d="M18 0zM46 0q-28 0 -22 25l116 594q2 11 6.5 16.5t16.5 7.5q24 4 62.5 6.5t73.5 2.5q127 0 188.5 -45.5t61.5 -154.5q0 -26 -5 -74.5t-21 -114.5q-19 -81 -53.5 -132t-82.5 -80.5t-110 -40t-136 -10.5h-95zM298 595q-28 0 -47.5 -0.5t-34.5 -2.5q-12 -1 -15 -15l-99 -507 q-3 -13 10 -13h53q61 0 108 11.5t82.5 37t59.5 66t38 97.5q13 51 19.5 93t6.5 82q0 43 -10.5 72.5t-32 46.5t-56 24.5t-82.5 7.5zM349 700q-5 0 -8.5 1.5t-7.5 6.5l-84 119q-8 11 4 20l20 15q14 8 22 -2l75 -92h5l112 94q11 10 22 2l23 -19q11 -7 -3 -19l-129 -118 q-5 -5 -10 -6.5t-10 -1.5h-31z" />
<glyph unicode="&#x10f;" horiz-adv-x="486" d="M38 0zM407 191q-12 -61 -29 -100t-44 -62q-26 -22 -60 -30t-85 -8q-78 0 -114.5 30.5t-36.5 106.5q0 30 5.5 67.5t12.5 76.5q14 78 34 124.5t49 69.5q24 20 55 26.5t70 6.5q55 0 85 -16t40 -45h2l44 228q1 11 13 11h42q11 0 9 -11zM364 311q5 23 5 45q0 41 -26.5 64.5 t-75.5 23.5q-28 0 -49 -5t-38 -20q-20 -18 -34 -54t-25 -97q-9 -48 -13.5 -76.5t-4.5 -51.5q0 -48 19.5 -71t74.5 -23q33 0 54.5 5.5t38.5 19.5q17 15 27.5 40t18.5 62zM607 692q29 0 29 -25q0 -6 -1.5 -16.5t-3.5 -18.5q-7 -35 -28 -65t-59 -61q-5 -4 -9.5 -5.5t-8.5 2.5 l-11 12q-3 4 -4 6.5t4 7.5q11 10 24.5 24t21.5 27q11 15 -3 23q-17 8 -17 25q0 3 1 10t4 21q7 33 37 33h24z" />
<glyph unicode="&#x110;" horiz-adv-x="580" d="M46 0q-28 0 -22 25l54 279h-60q-9 0 -11.5 3.5t-0.5 11.5l5 28q2 7 5.5 11t12.5 4h61l50 257q2 11 6.5 16.5t16.5 7.5q24 4 62.5 6.5t73.5 2.5q127 0 188.5 -45.5t61.5 -154.5q0 -26 -5.5 -74.5t-21.5 -114.5q-19 -81 -53 -132t-82 -80.5t-110 -40t-136 -10.5h-95z M298 595q-28 0 -47.5 -0.5t-34.5 -2.5q-12 -1 -15 -15l-42 -215h132q9 0 11.5 -4t0.5 -11l-6 -30q-2 -10 -7 -11.5t-10 -1.5h-133l-45 -234q-3 -13 10 -13h53q61 0 108 11.5t82 37t59 66t38 97.5q13 51 20 93t7 82q0 43 -10.5 72.5t-32 46.5t-56 24.5t-82.5 7.5z" />
<glyph unicode="&#x111;" horiz-adv-x="486" d="M487 603h64q9 0 11.5 -4t0.5 -11l-4 -20q-2 -10 -7.5 -11.5t-10.5 -1.5h-64l-70 -364q-12 -61 -29 -100t-44 -62q-26 -22 -60 -30t-85 -8q-78 0 -114.5 30.5t-36.5 106.5q0 30 5.5 67.5t12.5 76.5q14 78 34 124.5t49 69.5q24 20 55 26.5t70 6.5q55 0 85 -16t40 -45h2 l22 117h-106q-9 0 -11.5 3.5t-0.5 11.5l4 18q2 7 5.5 11t12.5 4h106l12 63q1 11 13 11h42q11 0 9 -11zM364 311q5 23 5 45q0 41 -26.5 64.5t-75.5 23.5q-28 0 -49 -5t-38 -20q-20 -18 -34 -54t-25 -97q-9 -48 -13.5 -76.5t-4.5 -51.5q0 -48 19.5 -71t74.5 -23q33 0 54.5 5.5 t38.5 19.5q17 15 27.5 40t18.5 62z" />
<glyph unicode="&#x112;" horiz-adv-x="476" d="M38 0zM137 0q-48 0 -73.5 16t-25.5 63q0 21 4.5 51t10.5 64q8 47 16 90t17 85t18.5 85.5t20.5 90.5q13 57 46 81q17 12 39.5 16.5t53.5 4.5h214q9 0 11.5 -3.5t0.5 -11.5l-6 -29q-2 -7 -5.5 -11t-12.5 -4h-209q-29 0 -43 -10q-8 -6 -12 -16t-8 -25q-5 -18 -9 -35.5 t-8.5 -38t-10 -44.5t-11.5 -55h244q9 0 11.5 -3.5t0.5 -11.5l-6 -29q-2 -7 -5.5 -11t-12.5 -4h-244q-14 -68 -21 -109.5t-11 -68.5q-3 -24 -3 -39q1 -29 45 -29h227q9 0 11 -4t0 -11l-5 -29q-2 -8 -5 -11.5t-12 -3.5h-232zM479 792q16 0 13 -15l-8 -35q-3 -13 -17 -13h-226 q-14 0 -11 15l7 33q2 7 5 11t12 4h225z" />
<glyph unicode="&#x113;" horiz-adv-x="450" d="M38 0zM397 228q-3 -20 -29 -20h-258q-4 -20 -6 -37.5t-2 -33.5q0 -27 5.5 -44.5t18 -28t34 -14.5t54.5 -4q29 0 61.5 6t62.5 17q17 6 20 -8l5 -23q2 -7 -1 -11t-15 -9q-37 -14 -74 -20.5t-70 -6.5q-49 0 -81 9.5t-50.5 27t-26 42.5t-7.5 56q0 32 5.5 71.5t12.5 77.5 q13 71 29 114t44 69q25 23 59 32t82 9q70 0 109 -31t39 -101q0 -11 -1.5 -23.5t-3.5 -26.5zM261 444q-26 0 -46.5 -4.5t-35.5 -17.5q-18 -16 -29.5 -43t-21.5 -77l-8 -42h203q13 0 16 11l8 42q3 14 4.5 28t1.5 25q0 42 -20.5 60t-71.5 18zM418 679q16 0 13 -15l-8 -35 q-3 -13 -17 -13h-226q-14 0 -11 15l7 33q1 7 4.5 11t12.5 4h225z" />
<glyph unicode="&#x114;" horiz-adv-x="476" d="M38 0zM137 0q-48 0 -73.5 16t-25.5 63q0 21 4.5 51t10.5 64q8 47 16 90t17 85t18.5 85.5t20.5 90.5q13 57 46 81q17 12 39.5 16.5t53.5 4.5h214q9 0 11.5 -3.5t0.5 -11.5l-6 -29q-2 -7 -5.5 -11t-12.5 -4h-209q-29 0 -43 -10q-8 -6 -12 -16t-8 -25q-5 -18 -9 -35.5 t-8.5 -38t-10 -44.5t-11.5 -55h244q9 0 11.5 -3.5t0.5 -11.5l-6 -29q-2 -7 -5.5 -11t-12.5 -4h-244q-14 -68 -21 -109.5t-11 -68.5q-3 -24 -3 -39q1 -29 45 -29h227q9 0 11 -4t0 -11l-5 -29q-2 -8 -5 -11.5t-12 -3.5h-232zM348 691q-54 0 -88.5 26t-39.5 81q0 8 2 13.5 t10 7.5l30 8q16 5 18 -11q4 -38 23 -54t51 -16q30 0 55 15.5t49 57.5q7 12 20 8l26 -8q8 -2 8.5 -6.5t-2.5 -11.5q-25 -56 -66.5 -83t-95.5 -27z" />
<glyph unicode="&#x115;" horiz-adv-x="450" d="M38 0zM397 228q-3 -20 -29 -20h-258q-4 -20 -6 -37.5t-2 -33.5q0 -27 5.5 -44.5t18 -28t34 -14.5t54.5 -4q29 0 61.5 6t62.5 17q17 6 20 -8l5 -23q2 -7 -1 -11t-15 -9q-37 -14 -74 -20.5t-70 -6.5q-49 0 -81 9.5t-50.5 27t-26 42.5t-7.5 56q0 32 5.5 71.5t12.5 77.5 q13 71 29 114t44 69q25 23 59 32t82 9q70 0 109 -31t39 -101q0 -11 -1.5 -23.5t-3.5 -26.5zM261 444q-26 0 -46.5 -4.5t-35.5 -17.5q-18 -16 -29.5 -43t-21.5 -77l-8 -42h203q13 0 16 11l8 42q3 14 4.5 28t1.5 25q0 42 -20.5 60t-71.5 18zM289 575q-54 0 -88.5 26t-39.5 81 q0 8 2 13.5t10 7.5l30 8q16 5 18 -11q4 -38 23 -54t51 -16q30 0 55 15.5t49 57.5q7 12 20 8l26 -8q8 -2 8.5 -6.5t-2.5 -11.5q-25 -56 -66.5 -83t-95.5 -27z" />
<glyph unicode="&#x116;" horiz-adv-x="476" d="M38 0zM137 0q-48 0 -73.5 16t-25.5 63q0 21 4.5 51t10.5 64q8 47 16 90t17 85t18.5 85.5t20.5 90.5q13 57 46 81q17 12 39.5 16.5t53.5 4.5h214q9 0 11.5 -3.5t0.5 -11.5l-6 -29q-2 -7 -5.5 -11t-12.5 -4h-209q-29 0 -43 -10q-8 -6 -12 -16t-8 -25q-5 -18 -9 -35.5 t-8.5 -38t-10 -44.5t-11.5 -55h244q9 0 11.5 -3.5t0.5 -11.5l-6 -29q-2 -7 -5.5 -11t-12.5 -4h-244q-14 -68 -21 -109.5t-11 -68.5q-3 -24 -3 -39q1 -29 45 -29h227q9 0 11 -4t0 -11l-5 -29q-2 -8 -5 -11.5t-12 -3.5h-232zM302 746q0 29 19.5 51.5t51.5 22.5 q24 0 37.5 -13.5t13.5 -37.5q0 -15 -6.5 -27.5t-16.5 -21.5t-23.5 -14.5t-26.5 -5.5q-20 0 -34.5 13t-14.5 33z" />
<glyph unicode="&#x117;" horiz-adv-x="450" d="M38 0zM397 228q-3 -20 -29 -20h-258q-4 -20 -6 -37.5t-2 -33.5q0 -27 5.5 -44.5t18 -28t34 -14.5t54.5 -4q29 0 61.5 6t62.5 17q17 6 20 -8l5 -23q2 -7 -1 -11t-15 -9q-37 -14 -74 -20.5t-70 -6.5q-49 0 -81 9.5t-50.5 27t-26 42.5t-7.5 56q0 32 5.5 71.5t12.5 77.5 q13 71 29 114t44 69q25 23 59 32t82 9q70 0 109 -31t39 -101q0 -11 -1.5 -23.5t-3.5 -26.5zM261 444q-26 0 -46.5 -4.5t-35.5 -17.5q-18 -16 -29.5 -43t-21.5 -77l-8 -42h203q13 0 16 11l8 42q3 14 4.5 28t1.5 25q0 42 -20.5 60t-71.5 18zM238 633q0 29 19.5 51.5t51.5 22.5 q24 0 37.5 -13.5t13.5 -37.5q0 -15 -6.5 -27.5t-16.5 -21.5t-23.5 -14.5t-26.5 -5.5q-20 0 -34.5 13t-14.5 33z" />
<glyph unicode="&#x118;" horiz-adv-x="476" d="M137 0q-48 0 -73.5 16t-25.5 63q0 21 4.5 51t10.5 64q8 47 16 90t17 85t18.5 85.5t20.5 90.5q13 57 46 81q17 12 39.5 16.5t53.5 4.5h214q9 0 11.5 -3.5t0.5 -11.5l-6 -29q-2 -7 -5.5 -11t-12.5 -4h-209q-29 0 -43 -10q-8 -6 -12 -16t-8 -25q-5 -18 -9 -35.5t-8.5 -38 t-10 -44.5t-11.5 -55h244q9 0 11.5 -3.5t0.5 -11.5l-6 -29q-2 -7 -5.5 -11t-12.5 -4h-244q-7 -34 -12 -61.5t-9 -50.5t-7 -43l-6 -40q-4 -29 6 -40t38 -11h227q9 0 11 -4t0 -11l-5 -29q-3 -11 -14 -17q-17 -9 -33 -21t-28.5 -26t-20 -30t-7.5 -32q0 -19 9.5 -26t27.5 -7 q13 0 26 3t24 8q11 6 13 -5v-28q1 -6 -1 -9t-10 -6q-17 -7 -34.5 -11t-42.5 -4q-38 0 -60.5 17t-22.5 51q0 38 25 73t66 55h-166z" />
<glyph unicode="&#x119;" horiz-adv-x="450" d="M397 228q-3 -20 -29 -20h-258q-4 -20 -6 -37.5t-2 -33.5q0 -27 5.5 -44.5t18 -28t34 -14.5t54.5 -4q29 0 61.5 6t62.5 17q17 6 20 -8l5 -23q2 -7 0 -10.5t-13 -8.5q-29 -12 -50 -29.5t-34.5 -35.5t-19.5 -35t-6 -29q0 -34 33 -34q13 0 28 3t26 8q13 6 13 -5v-28 q0 -6 -1.5 -9t-9.5 -6q-36 -15 -80 -15q-37 0 -58.5 16t-21.5 46q0 35 25 70.5t65 59.5q-14 -2 -28 -3.5t-28 -1.5q-49 0 -81 9.5t-50.5 27t-26 42.5t-7.5 56q0 32 5.5 71.5t12.5 77.5q13 71 29 114t44 69q25 23 59 32t82 9q70 0 109 -31t39 -101q0 -11 -1.5 -23.5 t-3.5 -26.5zM261 444q-26 0 -46.5 -4.5t-35.5 -17.5q-18 -16 -29.5 -43t-21.5 -77l-8 -42h203q13 0 16 11l8 42q3 14 4.5 28t1.5 25q0 42 -20.5 60t-71.5 18z" />
<glyph unicode="&#x11a;" horiz-adv-x="476" d="M38 0zM137 0q-48 0 -73.5 16t-25.5 63q0 21 4.5 51t10.5 64q8 47 16 90t17 85t18.5 85.5t20.5 90.5q13 57 46 81q17 12 39.5 16.5t53.5 4.5h214q9 0 11.5 -3.5t0.5 -11.5l-6 -29q-2 -7 -5.5 -11t-12.5 -4h-209q-29 0 -43 -10q-8 -6 -12 -16t-8 -25q-5 -18 -9 -35.5 t-8.5 -38t-10 -44.5t-11.5 -55h244q9 0 11.5 -3.5t0.5 -11.5l-6 -29q-2 -7 -5.5 -11t-12.5 -4h-244q-14 -68 -21 -109.5t-11 -68.5q-3 -24 -3 -39q1 -29 45 -29h227q9 0 11 -4t0 -11l-5 -29q-2 -8 -5 -11.5t-12 -3.5h-232zM336 700q-5 0 -8.5 1.5t-7.5 6.5l-84 119 q-8 11 4 20l20 15q14 8 22 -2l75 -92h5l112 94q11 10 22 2l23 -19q11 -7 -3 -19l-129 -118q-5 -5 -10 -6.5t-10 -1.5h-31z" />
<glyph unicode="&#x11b;" horiz-adv-x="450" d="M38 0zM397 228q-3 -20 -29 -20h-258q-4 -20 -6 -37.5t-2 -33.5q0 -27 5.5 -44.5t18 -28t34 -14.5t54.5 -4q29 0 61.5 6t62.5 17q17 6 20 -8l5 -23q2 -7 -1 -11t-15 -9q-37 -14 -74 -20.5t-70 -6.5q-49 0 -81 9.5t-50.5 27t-26 42.5t-7.5 56q0 32 5.5 71.5t12.5 77.5 q13 71 29 114t44 69q25 23 59 32t82 9q70 0 109 -31t39 -101q0 -11 -1.5 -23.5t-3.5 -26.5zM261 444q-26 0 -46.5 -4.5t-35.5 -17.5q-18 -16 -29.5 -43t-21.5 -77l-8 -42h203q13 0 16 11l8 42q3 14 4.5 28t1.5 25q0 42 -20.5 60t-71.5 18zM276 571q-5 0 -8.5 1.5t-7.5 6.5 l-84 119q-8 11 4 20l20 15q14 8 22 -2l75 -92h5l112 94q11 10 22 2l23 -19q11 -7 -3 -19l-129 -118q-5 -5 -10 -6.5t-10 -1.5h-31z" />
<glyph unicode="&#x11c;" horiz-adv-x="565" d="M49 0zM362 597q-55 0 -91 -16t-59 -46.5t-37 -74t-25 -98.5q-12 -58 -19.5 -104t-7.5 -78q0 -36 7.5 -61t24.5 -40.5t45 -22.5t69 -7q31 0 62 3.5t48 7.5q13 3 16 18l39 207h-90q-15 0 -12 15l6 31q3 13 18 13h145q14 0 11 -14l-56 -288q-2 -13 -6.5 -18.5t-15.5 -8.5 q-32 -9 -78 -16.5t-95 -7.5q-51 0 -90.5 8.5t-66.5 29.5t-41 55.5t-14 86.5q0 35 8 83.5t22 117.5q14 67 32.5 120t50 89.5t80.5 55.5t123 19q46 0 89.5 -11.5t76.5 -31.5q8 -5 8 -9.5t-4 -10.5l-17 -29q-5 -8 -10 -8t-13 5q-33 19 -66.5 27.5t-66.5 8.5zM426 850 q5 0 8.5 -1.5t7.5 -6.5l84 -111q8 -11 -4 -20l-20 -15q-14 -8 -22 2l-75 84h-5l-112 -86q-11 -10 -22 -2l-23 19q-11 7 3 19l129 110q5 5 10 6.5t10 1.5h31z" />
<glyph unicode="&#x11d;" horiz-adv-x="481" d="M37 0zM268 444q-33 0 -56.5 -7t-40 -25.5t-27.5 -50t-20 -79.5q-8 -44 -14.5 -82t-6.5 -70q0 -47 22 -66q21 -18 66 -18q58 0 97 31t51 95l25 130q3 17 5 30t2 24q0 42 -27.5 65t-75.5 23zM176 -187q-35 0 -64.5 4.5t-61.5 14.5q-13 4 -7 19l9 25q3 8 8 8.5t12 -1.5 q26 -8 51 -11.5t60 -3.5q28 0 49.5 9t35.5 25q17 18 25.5 43t14.5 54l10 47h-3q-39 -55 -130 -55q-70 0 -108.5 30.5t-38.5 103.5q0 30 7.5 75.5t15.5 91.5q10 56 24 95.5t36.5 64t56 36t83.5 11.5q57 0 88 -18.5t41 -47.5h2l14 43q5 14 20 14h23q16 0 13 -16l-91 -473 q-9 -47 -22.5 -82t-35.5 -58.5t-55.5 -35.5t-81.5 -12zM345 738q5 0 8.5 -1.5t7.5 -6.5l84 -119q8 -11 -4 -20l-20 -15q-14 -8 -22 2l-75 92h-5l-112 -94q-11 -10 -22 -2l-23 19q-11 7 3 19l129 118q5 5 10 6.5t10 1.5h31z" />
<glyph unicode="&#x11e;" horiz-adv-x="565" d="M49 0zM362 597q-55 0 -91 -16t-59 -46.5t-37 -74t-25 -98.5q-12 -58 -19.5 -104t-7.5 -78q0 -36 7.5 -61t24.5 -40.5t45 -22.5t69 -7q31 0 62 3.5t48 7.5q13 3 16 18l39 207h-90q-15 0 -12 15l6 31q3 13 18 13h145q14 0 11 -14l-56 -288q-2 -13 -6.5 -18.5t-15.5 -8.5 q-32 -9 -78 -16.5t-95 -7.5q-51 0 -90.5 8.5t-66.5 29.5t-41 55.5t-14 86.5q0 35 8 83.5t22 117.5q14 67 32.5 120t50 89.5t80.5 55.5t123 19q46 0 89.5 -11.5t76.5 -31.5q8 -5 8 -9.5t-4 -10.5l-17 -29q-5 -8 -10 -8t-13 5q-33 19 -66.5 27.5t-66.5 8.5zM390 691 q-54 0 -88.5 26t-39.5 81q0 8 2 13.5t10 7.5l30 8q16 5 18 -11q4 -38 23 -54t51 -16q30 0 55 15.5t49 57.5q7 12 20 8l26 -8q8 -2 8.5 -6.5t-2.5 -11.5q-25 -56 -66.5 -83t-95.5 -27z" />
<glyph unicode="&#x11f;" horiz-adv-x="481" d="M37 0zM268 444q-33 0 -56.5 -7t-40 -25.5t-27.5 -50t-20 -79.5q-8 -44 -14.5 -82t-6.5 -70q0 -47 22 -66q21 -18 66 -18q58 0 97 31t51 95l25 130q3 17 5 30t2 24q0 42 -27.5 65t-75.5 23zM176 -187q-35 0 -64.5 4.5t-61.5 14.5q-13 4 -7 19l9 25q3 8 8 8.5t12 -1.5 q26 -8 51 -11.5t60 -3.5q28 0 49.5 9t35.5 25q17 18 25.5 43t14.5 54l10 47h-3q-39 -55 -130 -55q-70 0 -108.5 30.5t-38.5 103.5q0 30 7.5 75.5t15.5 91.5q10 56 24 95.5t36.5 64t56 36t83.5 11.5q57 0 88 -18.5t41 -47.5h2l14 43q5 14 20 14h23q16 0 13 -16l-91 -473 q-9 -47 -22.5 -82t-35.5 -58.5t-55.5 -35.5t-81.5 -12zM313 575q-54 0 -88.5 26t-39.5 81q0 8 2 13.5t10 7.5l30 8q16 5 18 -11q4 -38 23 -54t51 -16q30 0 55 15.5t49 57.5q7 12 20 8l26 -8q8 -2 8.5 -6.5t-2.5 -11.5q-25 -56 -66.5 -83t-95.5 -27z" />
<glyph unicode="&#x120;" horiz-adv-x="565" d="M49 0zM362 597q-55 0 -91 -16t-59 -46.5t-37 -74t-25 -98.5q-12 -58 -19.5 -104t-7.5 -78q0 -36 7.5 -61t24.5 -40.5t45 -22.5t69 -7q31 0 62 3.5t48 7.5q13 3 16 18l39 207h-90q-15 0 -12 15l6 31q3 13 18 13h145q14 0 11 -14l-56 -288q-2 -13 -6.5 -18.5t-15.5 -8.5 q-32 -9 -78 -16.5t-95 -7.5q-51 0 -90.5 8.5t-66.5 29.5t-41 55.5t-14 86.5q0 35 8 83.5t22 117.5q14 67 32.5 120t50 89.5t80.5 55.5t123 19q46 0 89.5 -11.5t76.5 -31.5q8 -5 8 -9.5t-4 -10.5l-17 -29q-5 -8 -10 -8t-13 5q-33 19 -66.5 27.5t-66.5 8.5zM333 746 q0 29 19.5 51.5t51.5 22.5q24 0 37.5 -13.5t13.5 -37.5q0 -15 -6.5 -27.5t-16.5 -21.5t-23.5 -14.5t-26.5 -5.5q-20 0 -34.5 13t-14.5 33z" />
<glyph unicode="&#x121;" horiz-adv-x="481" d="M37 0zM268 444q-33 0 -56.5 -7t-40 -25.5t-27.5 -50t-20 -79.5q-8 -44 -14.5 -82t-6.5 -70q0 -47 22 -66q21 -18 66 -18q58 0 97 31t51 95l25 130q3 17 5 30t2 24q0 42 -27.5 65t-75.5 23zM176 -187q-35 0 -64.5 4.5t-61.5 14.5q-13 4 -7 19l9 25q3 8 8 8.5t12 -1.5 q26 -8 51 -11.5t60 -3.5q28 0 49.5 9t35.5 25q17 18 25.5 43t14.5 54l10 47h-3q-39 -55 -130 -55q-70 0 -108.5 30.5t-38.5 103.5q0 30 7.5 75.5t15.5 91.5q10 56 24 95.5t36.5 64t56 36t83.5 11.5q57 0 88 -18.5t41 -47.5h2l14 43q5 14 20 14h23q16 0 13 -16l-91 -473 q-9 -47 -22.5 -82t-35.5 -58.5t-55.5 -35.5t-81.5 -12zM254 633q0 29 19.5 51.5t51.5 22.5q24 0 37.5 -13.5t13.5 -37.5q0 -15 -6.5 -27.5t-16.5 -21.5t-23.5 -14.5t-26.5 -5.5q-20 0 -34.5 13t-14.5 33z" />
<glyph unicode="&#x122;" horiz-adv-x="565" d="M49 0zM362 597q-55 0 -91 -16t-59 -46.5t-37 -74t-25 -98.5q-12 -58 -19.5 -104t-7.5 -78q0 -36 7.5 -61t24.5 -40.5t45 -22.5t69 -7q31 0 62 3.5t48 7.5q13 3 16 18l39 207h-90q-15 0 -12 15l6 31q3 13 18 13h145q14 0 11 -14l-56 -288q-2 -13 -6.5 -18.5t-15.5 -8.5 q-32 -9 -78 -16.5t-95 -7.5q-51 0 -90.5 8.5t-66.5 29.5t-41 55.5t-14 86.5q0 35 8 83.5t22 117.5q14 67 32.5 120t50 89.5t80.5 55.5t123 19q46 0 89.5 -11.5t76.5 -31.5q8 -5 8 -9.5t-4 -10.5l-17 -29q-5 -8 -10 -8t-13 5q-33 19 -66.5 27.5t-66.5 8.5zM265 -69 q29 0 29 -25q0 -6 -1.5 -16.5t-3.5 -18.5q-7 -35 -28 -65t-59 -61q-5 -4 -9.5 -5.5t-8.5 2.5l-11 12q-3 4 -4 6.5t4 7.5q11 10 24.5 24t21.5 27q11 15 -3 23q-17 8 -17 25q0 3 1 10t4 21q7 33 37 33h24z" />
<glyph unicode="&#x123;" horiz-adv-x="481" d="M37 0zM268 444q-33 0 -56.5 -7t-40 -25.5t-27.5 -50t-20 -79.5q-8 -44 -14.5 -82t-6.5 -70q0 -47 22 -66q21 -18 66 -18q58 0 97 31t51 95l25 130q3 17 5 30t2 24q0 42 -27.5 65t-75.5 23zM176 -187q-35 0 -64.5 4.5t-61.5 14.5q-13 4 -7 19l9 25q3 8 8 8.5t12 -1.5 q26 -8 51 -11.5t60 -3.5q28 0 49.5 9t35.5 25q17 18 25.5 43t14.5 54l10 47h-3q-39 -55 -130 -55q-70 0 -108.5 30.5t-38.5 103.5q0 30 7.5 75.5t15.5 91.5q10 56 24 95.5t36.5 64t56 36t83.5 11.5q57 0 88 -18.5t41 -47.5h2l14 43q5 14 20 14h23q16 0 13 -16l-91 -473 q-9 -47 -22.5 -82t-35.5 -58.5t-55.5 -35.5t-81.5 -12zM291.004 577.996q-28.998 0 -28.998 24.998q0 6 1.5 16.499t3.5 18.499q7 34.998 27.998 64.9961q20.999 29.998 58.9961 60.9961q5 4 9.5 5.5t8.49902 -2.5l11 -11.999q2.99902 -4 3.99902 -6.5t-3.99902 -7.49902 q-11 -10 -24.499 -23.999t-21.498 -26.998q-11 -14.999 2.99902 -22.999q16.999 -7.99902 16.999 -24.998q0 -3 -1 -10q-1 -6.99902 -3.99902 -20.998q-7 -32.998 -36.998 -32.998h-23.999z" />
<glyph unicode="&#x124;" horiz-adv-x="594" d="M19 0zM523 630q3 17 18 17h39q10 0 12 -5t0 -12l-119 -613q-3 -17 -19 -17h-39q-14 0 -11 17l56 287h-313l-56 -287q-3 -17 -19 -17h-39q-14 0 -11 17l119 613q3 17 18 17h39q10 0 12 -5t0 -12l-52 -268h313zM425 850q5 0 8.5 -1.5t7.5 -6.5l84 -111q8 -11 -4 -20 l-20 -15q-14 -8 -22 2l-75 84h-5l-112 -86q-11 -10 -22 -2l-23 19q-11 7 3 19l129 110q5 5 10 6.5t10 1.5h31z" />
<glyph unicode="&#x125;" horiz-adv-x="497" d="M22 0zM176 447q10 11 18.5 17.5t22.5 14.5q19 10 41 15t60 5q48 0 76 -11.5t43 -35.5t16.5 -58.5t-9.5 -90.5l-55 -289q-1 -5 -4 -9.5t-11 -4.5h-35q-11 0 -14 3t-1 14l56 292q9 46 9 71t-11 40q-10 14 -27.5 19.5t-49.5 5.5q-34 0 -57 -7.5t-43 -24.5t-34 -43t-22 -69 l-55 -286q-1 -7 -4.5 -11t-12.5 -4h-34q-17 0 -14 15l126 651q2 11 15 11h40q11 0 10 -10l-43 -220h3v0zM229 865q5 0 8.5 -1.5t7.5 -6.5l84 -119q8 -11 -4 -20l-20 -15q-14 -8 -22 2l-75 92h-5l-112 -94q-11 -10 -22 -2l-23 19q-11 7 3 19l129 118q5 5 10 6.5t10 1.5h31z " />
<glyph unicode="&#x126;" horiz-adv-x="594" d="M121 530l20 100q4 17 18 17h39q10 0 12 -5t0 -12l-20 -100h313l20 100q4 17 18 17h39q10 0 12 -5.5t0 -11.5l-20 -100h43q9 0 11 -4t1 -11l-6 -30q-2 -10 -7.5 -11.5t-10.5 -1.5h-42l-88 -455q-3 -17 -19 -17h-39q-14 0 -11 17l56 287h-313l-56 -287q-3 -17 -19 -17h-39 q-14 0 -11 17l88 455h-43q-9 0 -11.5 3.5t-0.5 11.5l6 28q2 15 18 15h42zM492 472h-313l-21 -110h313z" />
<glyph unicode="&#x127;" horiz-adv-x="497" d="M176 447q10 11 18.5 17.5t22.5 14.5q19 10 41 15t60 5q48 0 76 -11.5t43 -35.5t16.5 -58.5t-9.5 -90.5l-55 -289q-1 -5 -4 -9.5t-11 -4.5h-35q-11 0 -14 3t-1 14l56 292q9 46 9 71t-11 40q-10 14 -27.5 19.5t-49.5 5.5q-34 0 -57 -7.5t-43 -24.5t-34 -43t-22 -69 l-55 -286q-1 -7 -4.5 -11t-12.5 -4h-34q-17 0 -14 15l104 540h-45q-9 0 -11.5 3.5t-0.5 11.5l4 18q2 7 5.5 11t12.5 4h45l12 63q2 11 15 11h40q11 0 10 -10l-13 -64h125q9 0 11.5 -4t0.5 -11l-4 -20q-2 -10 -7.5 -11.5t-10.5 -1.5h-124l-21 -108h3v0z" />
<glyph unicode="&#x128;" horiz-adv-x="225" d="M26 0zM148 630q4 17 18 17h39q10 0 12 -6t0 -11l-119 -613q-3 -17 -18 -17h-39q-15 0 -12 17zM51 730q-10 7 -1 20q28 39 56.5 58t55.5 19q19 0 30.5 -4.5t25.5 -15.5l25 -20q11 -9 17.5 -12.5t15.5 -3.5q12 0 26 11t35 34q10 12 20 3l17 -14q10 -7 0 -20 q-27 -38 -56 -56.5t-58 -18.5q-17 0 -29.5 4.5t-24.5 14.5l-25 20q-9 8 -15 12t-14 4q-15 0 -28 -9t-35 -35q-10 -12 -22 -3z" />
<glyph unicode="&#x129;" horiz-adv-x="226" d="M27 0zM103 8q-2 -8 -10 -8h-48q-8 0 -7 8l91 471q3 11 14 11h41q12 0 10 -11zM37 609q-10 7 -1 20q28 39 56.5 58t55.5 19q19 0 30.5 -4.5t25.5 -15.5l25 -20q11 -9 17.5 -12.5t15.5 -3.5q12 0 26 11t35 34q10 12 20 3l17 -14q10 -7 0 -20q-27 -38 -56 -56.5t-58 -18.5 q-32 0 -54 19l-25 20q-8 8 -14.5 12t-14.5 4q-15 0 -28 -9t-35 -35q-10 -12 -22 -3z" />
<glyph unicode="&#x12a;" horiz-adv-x="225" d="M26 0zM148 630q4 17 18 17h39q10 0 12 -6t0 -11l-119 -613q-3 -17 -18 -17h-39q-15 0 -12 17zM328 792q16 0 13 -15l-8 -35q-3 -13 -17 -13h-226q-14 0 -11 15l7 33q2 7 5 11t12 4h225z" />
<glyph unicode="&#x12b;" horiz-adv-x="226" d="M37 0zM103 8q-2 -8 -10 -8h-48q-8 0 -7 8l91 471q3 11 14 11h41q12 0 10 -11zM308 679q16 0 13 -15l-8 -35q-3 -13 -17 -13h-226q-14 0 -11 15l7 33q1 7 4.5 11t12.5 4h225z" />
<glyph unicode="&#x12c;" horiz-adv-x="225" d="M26 0zM148 630q4 17 18 17h39q10 0 12 -6t0 -11l-119 -613q-3 -17 -18 -17h-39q-15 0 -12 17zM198 691q-54 0 -88.5 26t-39.5 81q0 8 2 13.5t10 7.5l30 8q16 5 18 -11q4 -38 23 -54t51 -16q30 0 55 15.5t49 57.5q7 12 20 8l26 -8q8 -2 8.5 -6.5t-2.5 -11.5 q-25 -56 -66.5 -83t-95.5 -27z" />
<glyph unicode="&#x12d;" horiz-adv-x="226" d="M37 0zM103 8q-2 -8 -10 -8h-48q-8 0 -7 8l91 471q3 11 14 11h41q12 0 10 -11zM183 575q-54 0 -88.5 26t-39.5 81q0 8 2 13.5t10 7.5l30 8q16 5 18 -11q4 -38 23 -54t51 -16q30 0 55 15.5t49 57.5q7 12 20 8l26 -8q8 -2 8.5 -6.5t-2.5 -11.5q-25 -56 -66.5 -83t-95.5 -27z " />
<glyph unicode="&#x12e;" horiz-adv-x="224" d="M147 630q3 17 18 17h39q10 0 11.5 -6t0.5 -11l-118 -608q-3 -17 -14 -22q-48 -25 -69.5 -55.5t-21.5 -55.5q0 -33 37 -33q13 0 26 3t24 8q13 6 13 -5v-28q0 -6 -1.5 -9t-9.5 -6q-17 -7 -35 -11t-40 -4q-42 0 -63.5 19.5t-21.5 54.5q0 38 29.5 76.5t78.5 67.5z" />
<glyph unicode="&#x12f;" horiz-adv-x="226" d="M103 8q-1 -5 -12 -11q-88 -46 -88 -111q0 -15 8.5 -22.5t28.5 -7.5q13 0 26 3t24 8q11 6 13 -5v-28q1 -6 -1 -9t-10 -6q-17 -7 -34.5 -11t-42.5 -4q-83 0 -83 62q0 45 29.5 81.5t77.5 65.5l90 466q2 11 14 11h41q12 0 10 -11zM233 611q-5 -23 -17 -31.5t-35 -8.5h-4 q-39 0 -39 29q0 6 4 26q5 23 18.5 33t36.5 10h4q17 0 27 -7t10 -22q0 -4 -1 -10t-4 -19z" />
<glyph unicode="&#x130;" horiz-adv-x="225" d="M26 0zM148 630q4 17 18 17h39q10 0 12 -6t0 -11l-119 -613q-3 -17 -18 -17h-39q-15 0 -12 17zM150 746q0 29 19.5 51.5t51.5 22.5q24 0 37.5 -13.5t13.5 -37.5q0 -15 -6.5 -27.5t-16.5 -21.5t-23.5 -14.5t-26.5 -5.5q-20 0 -34.5 13t-14.5 33z" />
<glyph unicode="&#x131;" horiz-adv-x="226" d="M103 8q-2 -8 -10 -8h-48q-8 0 -7 8l91 471q3 11 14 11h41q12 0 10 -11z" />
<glyph unicode="&#x132;" horiz-adv-x="544" d="M26 0zM148 630q4 17 18 17h39q10 0 12 -6t0 -11l-119 -613q-3 -17 -18 -17h-39q-15 0 -12 17zM452 196q-15 -76 -41 -120q-23 -40 -60 -58t-91 -18h-38q-19 0 -16 17l5 29q3 13 15 13h42q36 0 56.5 13.5t32.5 35.5q11 20 16 41t11 53l83 428q3 17 18 17h39q15 0 12 -17z " />
<glyph unicode="&#x133;" horiz-adv-x="435" d="M37 0zM103 8q-2 -8 -10 -8h-48q-8 0 -7 8l91 471q2 11 14 11h41q12 0 10 -11zM233 611q-5 -23 -17 -31.5t-35 -8.5h-4q-39 0 -39 29q0 6 4 26q5 23 18.5 33t36.5 10h4q17 0 27 -7t10 -22q0 -4 -1 -10t-4 -19zM321 7q-8 -40 -21 -75t-39 -61q-22 -23 -53 -35.5t-80 -12.5 h-23q-14 0 -11 14l6 29q2 12 13 12h22q51 0 81 33q17 19 26 45t15 56l89 467q2 11 14 11h41q12 0 10 -11zM450 615q-9 -44 -53 -44h-4q-39 0 -39 29q0 9 4 26q5 24 18.5 33.5t36.5 9.5h4q17 0 27 -7t10 -22q0 -5 -1 -11t-3 -14z" />
<glyph unicode="&#x134;" horiz-adv-x="314" d="M0 0zM222 196q-15 -76 -41 -120q-23 -40 -60 -58t-91 -18h-38q-19 0 -16 17l5 29q3 13 15 13h42q36 0 56.5 13.5t32.5 35.5q11 20 16 41t11 53l83 428q3 17 18 17h39q15 0 12 -17zM322 850q5 0 8.5 -1.5t7.5 -6.5l84 -111q8 -11 -4 -20l-20 -15q-14 -8 -22 2l-75 84h-5 l-112 -86q-11 -10 -22 -2l-23 19q-11 7 3 19l129 110q5 5 10 6.5t10 1.5h31z" />
<glyph unicode="&#x135;" horiz-adv-x="215" d="M101 7q-8 -40 -21 -75t-39 -61q-22 -23 -53 -35.5t-80 -12.5h-23q-14 0 -11 14l6 29q2 12 13 12h22q51 0 81 33q17 19 26 45t15 56l89 467q2 11 14 11h41q12 0 10 -11zM212 738q5 0 8.5 -1.5t7.5 -6.5l84 -119q8 -11 -4 -20l-20 -15q-14 -8 -22 2l-75 92h-5l-112 -94 q-11 -10 -22 -2l-23 19q-11 7 3 19l129 118q5 5 10 6.5t10 1.5h31z" />
<glyph unicode="&#x136;" horiz-adv-x="504" d="M21 0zM313 345q-8 -9 -8 -14q0 -4 1 -6l2 -4l150 -308q6 -13 -12 -13h-47q-13 0 -18 14l-130 273q-5 11 -11.5 14t-20.5 3h-70l-56 -287q-3 -17 -18 -17h-39q-15 0 -12 17l119 613q4 17 18 17h39q10 0 12 -6t0 -11l-52 -268h63q14 0 23 3.5t17 13.5l216 253q8 9 14 12 t14 3h40q10 0 12.5 -5t-3.5 -12zM235 -69q29 0 29 -25q0 -6 -1.5 -16.5t-3.5 -18.5q-7 -35 -28 -65t-59 -61q-5 -4 -9.5 -5.5t-8.5 2.5l-11 12q-3 4 -4 6.5t4 7.5q11 10 24.5 24t21.5 27q11 15 -3 23q-17 8 -17 25q0 3 1 10t4 21q7 33 37 33h24z" />
<glyph unicode="&#x137;" horiz-adv-x="436" d="M22 0zM88 8q-2 -8 -10 -8h-46q-10 0 -8 8l127 658q2 11 15 11h39q12 0 10 -11l-72 -376h45q22 0 35 16l150 173q8 11 21 11h46q6 0 8.5 -4t-4.5 -12l-179 -202q-10 -11 -2 -30l103 -229q2 -5 0 -9t-9 -4h-43q-12 0 -15 10l-90 210q-5 12 -10.5 15.5t-19.5 3.5h-46z M197 -69q29 0 29 -25q0 -6 -1.5 -16.5t-3.5 -18.5q-7 -35 -28 -65t-59 -61q-5 -4 -9.5 -5.5t-8.5 2.5l-11 12q-3 4 -4 6.5t4 7.5q11 10 24.5 24t21.5 27q11 15 -3 23q-17 8 -17 25q0 3 1 10t4 21q7 33 37 33h24z" />
<glyph unicode="&#x138;" horiz-adv-x="435" d="M87 8q-2 -8 -10 -8h-46q-10 0 -8 8l91 471q2 11 15 11h39q12 0 10 -11l-36 -189h45q13 0 20 3.5t15 12.5l150 173q8 11 21 11h46q6 0 8.5 -4t-4.5 -12l-179 -202q-10 -12 -2 -30l103 -229q2 -5 0 -9t-9 -4h-43q-12 0 -15 10l-88 205q-6 14 -14.5 19t-23.5 5h-40z" />
<glyph unicode="&#x139;" horiz-adv-x="360" d="M34 0zM297 59q15 0 12 -13l-6 -33q-3 -13 -17 -13h-192q-31 0 -45.5 11t-14.5 40q0 14 3 35.5t7 39.5l97 504q3 17 18 17h39q15 0 12 -17l-100 -514q-2 -11 -3.5 -20t-1.5 -19t7 -14t28 -4h157zM329 829q19 9 25 -7l13 -35q3 -8 -0.5 -12.5t-17.5 -9.5l-186 -66 q-16 -6 -21 7l-8 19q-6 15 8 21z" />
<glyph unicode="&#x13a;" horiz-adv-x="255" d="M35 0zM184 52q13 0 10 -13l-5 -27q-3 -12 -16 -12h-38q-29 0 -46.5 4.5t-28.5 15.5q-25 26 -10 101l105 544q2 12 13 12h42q12 0 10 -12l-104 -540q-5 -28 -5.5 -41.5t4.5 -21.5q5 -6 13 -8t24 -2h32zM336 843q19 9 25 -7l13 -35q3 -8 -0.5 -12.5t-17.5 -9.5l-186 -66 q-16 -6 -21 7l-8 19q-6 15 8 21z" />
<glyph unicode="&#x13b;" horiz-adv-x="360" d="M34 0zM297 59q15 0 12 -13l-6 -33q-3 -13 -17 -13h-192q-31 0 -45.5 11t-14.5 40q0 14 3 35.5t7 39.5l97 504q3 17 18 17h39q15 0 12 -17l-100 -514q-2 -11 -3.5 -20t-1.5 -19t7 -14t28 -4h157zM168 -69q29 0 29 -25q0 -6 -1.5 -16.5t-3.5 -18.5q-7 -35 -28 -65t-59 -61 q-5 -4 -9.5 -5.5t-8.5 2.5l-11 12q-3 4 -4 6.5t4 7.5q11 10 24.5 24t21.5 27q11 15 -3 23q-17 8 -17 25q0 3 1 10t4 21q7 33 37 33h24z" />
<glyph unicode="&#x13c;" horiz-adv-x="255" d="M14 0zM184 52q13 0 10 -13l-5 -27q-3 -12 -16 -12h-38q-29 0 -46.5 4.5t-28.5 15.5q-25 26 -10 101l105 544q2 12 13 12h42q12 0 10 -12l-104 -540q-5 -28 -5.5 -41.5t4.5 -21.5q5 -6 13 -8t24 -2h32zM111 -69q29 0 29 -25q0 -6 -1.5 -16.5t-3.5 -18.5q-7 -35 -28 -65 t-59 -61q-5 -4 -9.5 -5.5t-8.5 2.5l-11 12q-3 4 -4 6.5t4 7.5q11 10 24.5 24t21.5 27q11 15 -3 23q-17 8 -17 25q0 3 1 10t4 21q7 33 37 33h24z" />
<glyph unicode="&#x13d;" horiz-adv-x="360" d="M34 0zM297 59q15 0 12 -13l-6 -33q-3 -13 -17 -13h-192q-31 0 -45.5 11t-14.5 40q0 14 3 35.5t7 39.5l97 504q3 17 18 17h39q15 0 12 -17l-100 -514q-2 -11 -3.5 -20t-1.5 -19t7 -14t28 -4h157zM367 646q29 0 29 -25q0 -6 -1.5 -16.5t-3.5 -18.5q-7 -35 -28 -65t-59 -61 q-5 -4 -9.5 -5.5t-8.5 2.5l-11 12q-3 4 -4 6.5t4 7.5q11 10 24.5 24t21.5 27q11 15 -3 23q-17 8 -17 25q0 3 1 10t4 21q7 33 37 33h24z" />
<glyph unicode="&#x13e;" horiz-adv-x="255" d="M333 692q29 0 29 -24q0 -3 -0.5 -10t-5.5 -27q-12 -62 -73 -115q-11 -9 -18 -3l-11 12q-8 6 0 14t16 16.5t16 19.5q11 15 -3 23q-17 8 -17 25q0 3 0.5 9t5.5 27q3 17 14 25t26 8h21zM184 52q13 0 10 -13l-5 -27q-3 -12 -16 -12h-38q-29 0 -46.5 4.5t-28.5 15.5 q-25 26 -10 101l105 544q2 12 13 12h42q12 0 10 -12l-104 -540q-5 -28 -5.5 -41.5t4.5 -21.5q5 -6 13 -8t24 -2h32z" />
<glyph unicode="&#x13f;" horiz-adv-x="401" d="M34 0zM297 59q15 0 12 -13l-6 -33q-3 -13 -17 -13h-192q-31 0 -45.5 11t-14.5 40q0 14 3 35.5t7 39.5l97 504q3 17 18 17h39q15 0 12 -17l-100 -514q-2 -11 -3.5 -20t-1.5 -19t7 -14t28 -4h157zM256 325q0 29 19.5 51.5t51.5 22.5q24 0 37.5 -13.5t13.5 -37.5 q0 -15 -6.5 -27.5t-16.5 -21.5t-23.5 -14.5t-26.5 -5.5q-20 0 -34.5 13t-14.5 33z" />
<glyph unicode="&#x140;" horiz-adv-x="300" d="M35 0zM184 52q13 0 10 -13l-5 -27q-3 -12 -16 -12h-38q-29 0 -46.5 4.5t-28.5 15.5q-25 26 -10 101l105 544q2 12 13 12h42q12 0 10 -12l-104 -540q-5 -28 -5.5 -41.5t4.5 -21.5q5 -6 13 -8t24 -2h32zM286 400q37 0 37 -28q0 -2 -1 -11.5t-4 -23.5q-8 -39 -51 -39h-10 q-17 0 -26.5 7t-9.5 18q0 8 1 16t4 22q4 20 17 29.5t33 9.5h10z" />
<glyph unicode="&#x141;" horiz-adv-x="360" d="M297 59q15 0 12 -13l-6 -33q-3 -13 -17 -13h-192q-31 0 -45.5 11t-14.5 40q0 14 3 35.5t7 39.5l27 143l-82 -48q-8 -5 -12 -2.5t-2 13.5l6 35q2 9 6 15t15 13l84 49l55 286q3 17 18 17h39q15 0 12 -17l-47 -241l104 61q8 5 12.5 2.5t2.5 -13.5l-7 -35q-2 -9 -5.5 -15 t-14.5 -13l-107 -62l-38 -198q-2 -11 -3.5 -20t-1.5 -19t7 -14t28 -4h157z" />
<glyph unicode="&#x142;" horiz-adv-x="255" d="M184 52q13 0 10 -13l-5 -27q-3 -12 -16 -12h-38q-29 0 -46.5 4.5t-28.5 15.5q-25 26 -10 101l32 167l-76 -44q-8 -5 -12.5 -2.5t-2.5 13.5l7 35q2 9 5.5 15t14.5 13l79 46l58 301q2 12 13 12h42q12 0 10 -12l-50 -258l113 66q19 10 15 -11l-6 -35q-2 -9 -6 -15t-15 -13 l-115 -68l-40 -206q-5 -28 -5.5 -41.5t4.5 -21.5q5 -6 13 -8t24 -2h32z" />
<glyph unicode="&#x143;" horiz-adv-x="604" d="M19 0zM485 27q-3 -16 -12.5 -21.5t-26.5 -5.5h-44q-18 0 -26 5t-13 21l-160 554h-7l-110 -563q-3 -17 -19 -17h-34q-14 0 -11 17l117 603q3 16 10 21.5t27 5.5h45q17 0 26 -5.5t14 -22.5l161 -554h7l108 563q4 17 18 17h34q15 0 12 -17zM505 829q19 9 25 -7l13 -35 q3 -8 -0.5 -12.5t-17.5 -9.5l-186 -66q-16 -6 -21 7l-8 19q-6 15 8 21z" />
<glyph unicode="&#x144;" horiz-adv-x="497" d="M22 0zM165 437q10 12 22 22t30 20q19 10 41 15t60 5q48 0 76 -11.5t43 -35.5t16.5 -58.5t-9.5 -90.5l-55 -289q-1 -5 -4 -9.5t-11 -4.5h-35q-11 0 -14 3t-1 14l56 292q9 46 9 71t-11 40q-10 14 -27.5 19.5t-49.5 5.5q-34 0 -57 -7.5t-43 -24.5t-34 -43t-22 -69l-55 -286 q-2 -7 -5 -11t-12 -4h-34q-17 0 -14 15l89 465q1 10 13 10h30q12 0 11 -10l-5 -43h2zM437 715q19 9 25 -7l13 -35q3 -8 -0.5 -12.5t-17.5 -9.5l-186 -66q-16 -6 -21 7l-8 19q-6 15 8 21z" />
<glyph unicode="&#x145;" horiz-adv-x="604" d="M19 0zM485 27q-3 -16 -12.5 -21.5t-26.5 -5.5h-44q-18 0 -26 5t-13 21l-160 554h-7l-110 -563q-3 -17 -19 -17h-34q-14 0 -11 17l117 603q3 16 10 21.5t27 5.5h45q17 0 26 -5.5t14 -22.5l161 -554h7l108 563q4 17 18 17h34q15 0 12 -17zM266 -69q29 0 29 -25 q0 -6 -1.5 -16.5t-3.5 -18.5q-7 -35 -28 -65t-59 -61q-5 -4 -9.5 -5.5t-8.5 2.5l-11 12q-3 4 -4 6.5t4 7.5q11 10 24.5 24t21.5 27q11 15 -3 23q-17 8 -17 25q0 3 1 10t4 21q7 33 37 33h24z" />
<glyph unicode="&#x146;" horiz-adv-x="497" d="M22 0zM165 437q10 12 22 22t30 20q19 10 41 15t60 5q48 0 76 -11.5t43 -35.5t16.5 -58.5t-9.5 -90.5l-55 -289q-1 -5 -4 -9.5t-11 -4.5h-35q-11 0 -14 3t-1 14l56 292q9 46 9 71t-11 40q-10 14 -27.5 19.5t-49.5 5.5q-34 0 -57 -7.5t-43 -24.5t-34 -43t-22 -69l-55 -286 q-2 -7 -5 -11t-12 -4h-34q-17 0 -14 15l89 465q1 10 13 10h30q12 0 11 -10l-5 -43h2zM210 -69q29 0 29 -25q0 -6 -1.5 -16.5t-3.5 -18.5q-7 -35 -28 -65t-59 -61q-5 -4 -9.5 -5.5t-8.5 2.5l-11 12q-3 4 -4 6.5t4 7.5q11 10 24.5 24t21.5 27q11 15 -3 23q-17 8 -17 25 q0 3 1 10t4 21q7 33 37 33h24z" />
<glyph unicode="&#x147;" horiz-adv-x="604" d="M19 0zM485 27q-3 -16 -12.5 -21.5t-26.5 -5.5h-44q-18 0 -26 5t-13 21l-160 554h-7l-110 -563q-3 -17 -19 -17h-34q-14 0 -11 17l117 603q3 16 10 21.5t27 5.5h45q17 0 26 -5.5t14 -22.5l161 -554h7l108 563q4 17 18 17h34q15 0 12 -17zM376 700q-5 0 -8.5 1.5t-7.5 6.5 l-84 119q-8 11 4 20l20 15q14 8 22 -2l75 -92h5l112 94q11 10 22 2l23 -19q11 -7 -3 -19l-129 -118q-5 -5 -10 -6.5t-10 -1.5h-31z" />
<glyph unicode="&#x148;" horiz-adv-x="497" d="M22 0zM165 437q10 12 22 22t30 20q19 10 41 15t60 5q48 0 76 -11.5t43 -35.5t16.5 -58.5t-9.5 -90.5l-55 -289q-1 -5 -4 -9.5t-11 -4.5h-35q-11 0 -14 3t-1 14l56 292q9 46 9 71t-11 40q-10 14 -27.5 19.5t-49.5 5.5q-34 0 -57 -7.5t-43 -24.5t-34 -43t-22 -69l-55 -286 q-2 -7 -5 -11t-12 -4h-34q-17 0 -14 15l89 465q1 10 13 10h30q12 0 11 -10l-5 -43h2zM312 571q-5 0 -8.5 1.5t-7.5 6.5l-84 119q-8 11 4 20l20 15q14 8 22 -2l75 -92h5l112 94q11 10 22 2l23 -19q11 -7 -3 -19l-129 -118q-5 -5 -10 -6.5t-10 -1.5h-31z" />
<glyph unicode="&#x149;" horiz-adv-x="497" d="M0 0zM165 437q10 12 22 22t30 20q19 10 41 15t60 5q48 0 76 -11.5t43 -35.5t16.5 -58.5t-9.5 -90.5l-55 -289q-1 -5 -4 -9.5t-11 -4.5h-35q-11 0 -14 3t-1 14l56 292q9 46 9 71t-11 40q-10 14 -27.5 19.5t-49.5 5.5q-34 0 -57 -7.5t-43 -24.5t-34 -43t-22 -69l-55 -286 q-2 -7 -5 -11t-12 -4h-34q-17 0 -14 15l89 465q1 10 13 10h30q12 0 11 -10l-5 -43h2zM89 687q21 0 31 -7.5t10 -27.5q0 -15 -4 -35q-4 -17 -10.5 -34.5t-17.5 -37.5q-11 -21 -27.5 -42t-32.5 -36q-9 -9 -18 -2l-16 11q-9 8 2 19q15 15 27 33q14 20 23 39q7 14 -2 18l-14 8 q-16 9 -16 26q0 3 1 11.5t4 22.5q4 18 14.5 26t31.5 8h14z" />
<glyph unicode="&#x14a;" horiz-adv-x="604" d="M476 -16q-9 -47 -22 -82t-36 -57q-22 -21 -52.5 -29t-71.5 -8h-26q-16 0 -13 17l5 29q2 13 15 13h36q23 0 39 5t28 18q13 14 20.5 37t13.5 55l3 18h-14q-17 0 -26 8t-15 29l-157 543h-7l-110 -563q-3 -17 -20 -17h-34q-13 0 -10 17l115 594q3 17 14 26.5t30 9.5h41 q17 0 26.5 -8t15.5 -29l158 -545h7l109 563q3 17 19 17h34q14 0 11 -17z" />
<glyph unicode="&#x14b;" horiz-adv-x="497" d="M393 37q-11 -60 -27 -95t-40 -58q-22 -21 -52 -30.5t-67 -9.5h-36q-11 0 -8 12l6 33q2 12 13 12h34q42 0 67 24q16 16 25.5 41t20.5 76l51 267q9 46 9 71t-11 40q-10 14 -27.5 19.5t-49.5 5.5q-34 0 -57 -7.5t-43 -24.5t-34 -43t-22 -69l-55 -286q-2 -7 -5 -11t-12 -4 h-34q-17 0 -14 15l89 465q1 10 13 10h30q12 0 11 -10l-5 -43h2q10 12 22 22t30 20q19 10 41 15t60 5q48 0 76 -11.5t43 -35.5t16.5 -58.5t-9.5 -90.5z" />
<glyph unicode="&#x14c;" horiz-adv-x="586" d="M51 0zM461 310q13 56 17 91t4 64q0 66 -27 99t-100 33q-42 0 -69 -10t-50 -30q-19 -17 -32 -38.5t-23.5 -48.5t-18.5 -60t-17 -73q-11 -56 -16 -91t-5 -64q0 -34 5 -59t19.5 -41t39 -24t63.5 -8q45 0 78 15.5t57.5 47t42 80.5t32.5 117zM531 297q-18 -84 -42 -142.5 t-57.5 -95t-78.5 -52.5t-105 -16q-47 0 -83.5 8.5t-61.5 29.5t-38.5 55.5t-13.5 86.5q0 47 8 94t16 85q10 48 20.5 86.5t23.5 69t30.5 55t40.5 44.5q60 51 168 51q44 0 80.5 -9t62.5 -30t40 -55.5t14 -85.5q0 -47 -8 -94t-16 -85zM518 792q16 0 13 -15l-8 -35 q-3 -13 -17 -13h-226q-14 0 -11 15l7 33q2 7 5 11t12 4h225z" />
<glyph unicode="&#x14d;" horiz-adv-x="479" d="M38 0zM204 46q42 0 68.5 14t44 41t28 66t19.5 89q5 27 8.5 54t3.5 47q0 47 -23.5 67t-76.5 20q-42 0 -68.5 -14t-44 -41t-28 -66t-19.5 -89q-5 -27 -8.5 -54t-3.5 -47q0 -49 24.5 -68t75.5 -19zM195 -9q-78 0 -117.5 33t-39.5 107q0 25 5 62t11 69q13 64 29 109t42 73.5 t64.5 41.5t95.5 13q86 0 121.5 -35t35.5 -105q0 -25 -5 -62t-11 -69q-13 -64 -29 -109t-42 -73.5t-64.5 -41.5t-95.5 -13zM432 679q16 0 13 -15l-8 -35q-3 -13 -17 -13h-226q-14 0 -11 15l7 33q1 7 4.5 11t12.5 4h225z" />
<glyph unicode="&#x14e;" horiz-adv-x="586" d="M51 0zM461 310q13 56 17 91t4 64q0 66 -27 99t-100 33q-42 0 -69 -10t-50 -30q-19 -17 -32 -38.5t-23.5 -48.5t-18.5 -60t-17 -73q-11 -56 -16 -91t-5 -64q0 -34 5 -59t19.5 -41t39 -24t63.5 -8q45 0 78 15.5t57.5 47t42 80.5t32.5 117zM531 297q-18 -84 -42 -142.5 t-57.5 -95t-78.5 -52.5t-105 -16q-47 0 -83.5 8.5t-61.5 29.5t-38.5 55.5t-13.5 86.5q0 47 8 94t16 85q10 48 20.5 86.5t23.5 69t30.5 55t40.5 44.5q60 51 168 51q44 0 80.5 -9t62.5 -30t40 -55.5t14 -85.5q0 -47 -8 -94t-16 -85zM391 691q-54 0 -88.5 26t-39.5 81 q0 8 2 13.5t10 7.5l30 8q16 5 18 -11q4 -38 23 -54t51 -16q30 0 55 15.5t49 57.5q7 12 20 8l26 -8q8 -2 8.5 -6.5t-2.5 -11.5q-25 -56 -66.5 -83t-95.5 -27z" />
<glyph unicode="&#x14f;" horiz-adv-x="479" d="M38 0zM204 46q42 0 68.5 14t44 41t28 66t19.5 89q5 27 8.5 54t3.5 47q0 47 -23.5 67t-76.5 20q-42 0 -68.5 -14t-44 -41t-28 -66t-19.5 -89q-5 -27 -8.5 -54t-3.5 -47q0 -49 24.5 -68t75.5 -19zM195 -9q-78 0 -117.5 33t-39.5 107q0 25 5 62t11 69q13 64 29 109t42 73.5 t64.5 41.5t95.5 13q86 0 121.5 -35t35.5 -105q0 -25 -5 -62t-11 -69q-13 -64 -29 -109t-42 -73.5t-64.5 -41.5t-95.5 -13zM307 575q-54 0 -88.5 26t-39.5 81q0 8 2 13.5t10 7.5l30 8q16 5 18 -11q4 -38 23 -54t51 -16q30 0 55 15.5t49 57.5q7 12 20 8l26 -8q8 -2 8.5 -6.5 t-2.5 -11.5q-25 -56 -66.5 -83t-95.5 -27z" />
<glyph unicode="&#x150;" horiz-adv-x="586" d="M51 0zM461 310q13 56 17 91t4 64q0 66 -27 99t-100 33q-42 0 -69 -10t-50 -30q-19 -17 -32 -38.5t-23.5 -48.5t-18.5 -60t-17 -73q-11 -56 -16 -91t-5 -64q0 -34 5 -59t19.5 -41t39 -24t63.5 -8q45 0 78 15.5t57.5 47t42 80.5t32.5 117zM531 297q-18 -84 -42 -142.5 t-57.5 -95t-78.5 -52.5t-105 -16q-47 0 -83.5 8.5t-61.5 29.5t-38.5 55.5t-13.5 86.5q0 47 8 94t16 85q10 48 20.5 86.5t23.5 69t30.5 55t40.5 44.5q60 51 168 51q44 0 80.5 -9t62.5 -30t40 -55.5t14 -85.5q0 -47 -8 -94t-16 -85zM410 849q16 12 27 -4l17 -23q10 -15 -7 -26 l-170 -102q-8 -5 -12.5 -4t-9.5 8l-13 17q-8 12 4 21zM613 849q16 12 27 -4l17 -23q10 -15 -7 -26l-170 -102q-8 -5 -12.5 -4t-9.5 8l-13 17q-8 12 4 21z" />
<glyph unicode="&#x151;" horiz-adv-x="479" d="M38 0zM204 46q42 0 68.5 14t44 41t28 66t19.5 89q5 27 8.5 54t3.5 47q0 47 -23.5 67t-76.5 20q-42 0 -68.5 -14t-44 -41t-28 -66t-19.5 -89q-5 -27 -8.5 -54t-3.5 -47q0 -49 24.5 -68t75.5 -19zM195 -9q-78 0 -117.5 33t-39.5 107q0 25 5 62t11 69q13 64 29 109t42 73.5 t64.5 41.5t95.5 13q86 0 121.5 -35t35.5 -105q0 -25 -5 -62t-11 -69q-13 -64 -29 -109t-42 -73.5t-64.5 -41.5t-95.5 -13zM321 736q16 12 27 -4l17 -23q10 -15 -7 -26l-170 -102q-8 -5 -12.5 -4t-9.5 8l-13 17q-8 12 4 21zM524 736q16 12 27 -4l17 -23q10 -15 -7 -26 l-170 -102q-8 -5 -12.5 -4t-9.5 8l-13 17q-8 12 4 21z" />
<glyph unicode="&#x152;" horiz-adv-x="840" d="M499 0q-37 0 -61 16t-29 49q-23 -39 -67.5 -56.5t-93.5 -17.5q-47 0 -83.5 8.5t-61.5 29.5t-38.5 55.5t-13.5 86.5q0 47 8 94t16 85q10 48 20.5 86.5t23.5 69t30.5 55t40.5 44.5q60 51 168 51q58 0 94.5 -17.5t56.5 -49.5q11 26 27 38q29 20 88 20h230q9 0 11.5 -3.5 t0.5 -11.5l-6 -29q-2 -7 -5.5 -11t-12.5 -4h-225q-29 0 -43 -10q-14 -11 -20 -41l-34 -173h245q9 0 11.5 -3.5t0.5 -11.5l-6 -29q-2 -7 -5.5 -11t-12.5 -4h-244l-38 -195q-6 -29 5 -41q9 -10 39 -10h225q9 0 11 -4t0 -11l-5 -29q-2 -8 -5 -11.5t-12 -3.5h-230zM355 597 q-42 0 -69 -10t-50 -30q-19 -17 -32 -38.5t-23.5 -48.5t-18.5 -60t-17 -73q-11 -56 -16 -91t-5 -64q0 -35 5 -60t19 -41t38.5 -23.5t62.5 -7.5q64 0 108.5 39.5t60.5 118.5l47 235q8 40 3 69t-20 48t-39 28t-54 9z" />
<glyph unicode="&#x153;" horiz-adv-x="761" d="M195 -9q-78 0 -117.5 33t-39.5 107q0 25 5 62t11 69q13 64 29 109t42 73.5t64.5 41.5t95.5 13q55 0 89.5 -17.5t46.5 -49.5q23 35 61.5 51t98.5 16q70 0 109 -31t39 -101q0 -11 -1.5 -23.5t-3.5 -26.5l-17 -90q-3 -20 -29 -20l-256 1q-6 -29 -7.5 -44.5t-1.5 -26.5 q0 -27 5.5 -44.5t18 -28t34 -14.5t54.5 -4q29 0 61.5 6t62.5 17q17 6 20 -8l5 -23q2 -7 -1 -11t-15 -9q-37 -14 -74 -20.5t-70 -6.5q-74 0 -108.5 20.5t-46.5 56.5q-20 -39 -62.5 -58t-101.5 -19zM204 46q39 0 65 12.5t43.5 37t28 60t19.5 80.5q5 29 10.5 59t5.5 62 q0 45 -23.5 66t-76.5 21q-42 0 -68.5 -14t-44 -41t-28 -66t-19.5 -89q-5 -27 -8.5 -54t-3.5 -47q0 -49 24.5 -68t75.5 -19zM572 444q-26 0 -46.5 -4.5t-35.5 -17.5q-9 -8 -17 -19t-15 -29.5t-13.5 -46t-12.5 -67.5l201 -1q13 0 16 11l10 49q5 28 5 47q0 42 -20.5 60 t-71.5 18z" />
<glyph unicode="&#x154;" horiz-adv-x="508" d="M20 0zM139 621q2 13 8.5 18.5t17.5 7.5q26 5 53 7t65 2q49 0 89 -6.5t67.5 -21.5t42.5 -40.5t15 -63.5q0 -23 -3.5 -46.5t-12.5 -50.5q-20 -60 -54 -92.5t-90 -46.5l110 -273q8 -15 -12 -15h-51q-12 0 -15 9l-99 259q-2 5 -5.5 6.5t-8.5 1.5h-29h-41.5t-44.5 1l-50 -263 q-2 -9 -7 -11.5t-13 -2.5h-39q-8 0 -10 2.5t0 11.5zM218 593q-9 -2 -13.5 -5.5t-6.5 -17.5l-45 -233q24 -2 40 -2h39q40 0 69.5 5t50.5 17t35.5 31.5t24.5 48.5q8 23 11 40.5t3 32.5q0 52 -37.5 69.5t-112.5 17.5q-17 0 -30.5 -1t-27.5 -3zM433 829q19 9 25 -7l13 -35 q3 -8 -0.5 -12.5t-17.5 -9.5l-186 -66q-16 -6 -21 7l-8 19q-6 15 8 21z" />
<glyph unicode="&#x155;" horiz-adv-x="313" d="M22 0zM158 490q12 0 11 -10l-7 -53h2q25 32 56 48q30 15 72 15h31q8 0 10 -2.5t1 -9.5l-7 -34q-3 -11 -15 -11h-32q-29 0 -49 -7.5t-37 -22.5q-36 -31 -48 -98l-56 -292q-3 -13 -19 -13h-31q-18 0 -15 13l90 467q1 10 13 10h30zM370 715q19 9 25 -7l13 -35 q3 -8 -0.5 -12.5t-17.5 -9.5l-186 -66q-16 -6 -21 7l-8 19q-6 15 8 21z" />
<glyph unicode="&#x156;" horiz-adv-x="508" d="M20 0zM139 621q2 13 8.5 18.5t17.5 7.5q26 5 53 7t65 2q49 0 89 -6.5t67.5 -21.5t42.5 -40.5t15 -63.5q0 -23 -3.5 -46.5t-12.5 -50.5q-20 -60 -54 -92.5t-90 -46.5l110 -273q8 -15 -12 -15h-51q-12 0 -15 9l-99 259q-2 5 -5.5 6.5t-8.5 1.5h-29h-41.5t-44.5 1l-50 -263 q-2 -9 -7 -11.5t-13 -2.5h-39q-8 0 -10 2.5t0 11.5zM218 593q-9 -2 -13.5 -5.5t-6.5 -17.5l-45 -233q24 -2 40 -2h39q40 0 69.5 5t50.5 17t35.5 31.5t24.5 48.5q8 23 11 40.5t3 32.5q0 52 -37.5 69.5t-112.5 17.5q-17 0 -30.5 -1t-27.5 -3zM236 -69q29 0 29 -25 q0 -6 -1.5 -16.5t-3.5 -18.5q-7 -35 -28 -65t-59 -61q-5 -4 -9.5 -5.5t-8.5 2.5l-11 12q-3 4 -4 6.5t4 7.5q11 10 24.5 24t21.5 27q11 15 -3 23q-17 8 -17 25q0 3 1 10t4 21q7 33 37 33h24z" />
<glyph unicode="&#x157;" horiz-adv-x="313" d="M0 0zM158 490q12 0 11 -10l-7 -53h2q25 32 56 48q30 15 72 15h31q8 0 10 -2.5t1 -9.5l-7 -34q-3 -11 -15 -11h-32q-29 0 -49 -7.5t-37 -22.5q-36 -31 -48 -98l-56 -292q-3 -13 -19 -13h-31q-18 0 -15 13l90 467q1 10 13 10h30zM53 -69q29 0 29 -25q0 -6 -1.5 -16.5 t-3.5 -18.5q-7 -35 -28 -65t-59 -61q-5 -4 -9.5 -5.5t-8.5 2.5l-11 12q-3 4 -4 6.5t4 7.5q11 10 24.5 24t21.5 27q11 15 -3 23q-17 8 -17 25q0 3 1 10t4 21q7 33 37 33h24z" />
<glyph unicode="&#x158;" horiz-adv-x="508" d="M20 0zM139 621q2 13 8.5 18.5t17.5 7.5q26 5 53 7t65 2q49 0 89 -6.5t67.5 -21.5t42.5 -40.5t15 -63.5q0 -23 -3.5 -46.5t-12.5 -50.5q-20 -60 -54 -92.5t-90 -46.5l110 -273q8 -15 -12 -15h-51q-12 0 -15 9l-99 259q-2 5 -5.5 6.5t-8.5 1.5h-29h-41.5t-44.5 1l-50 -263 q-2 -9 -7 -11.5t-13 -2.5h-39q-8 0 -10 2.5t0 11.5zM218 593q-9 -2 -13.5 -5.5t-6.5 -17.5l-45 -233q24 -2 40 -2h39q40 0 69.5 5t50.5 17t35.5 31.5t24.5 48.5q8 23 11 40.5t3 32.5q0 52 -37.5 69.5t-112.5 17.5q-17 0 -30.5 -1t-27.5 -3zM314 700q-5 0 -8.5 1.5t-7.5 6.5 l-84 119q-8 11 4 20l20 15q14 8 22 -2l75 -92h5l112 94q11 10 22 2l23 -19q11 -7 -3 -19l-129 -118q-5 -5 -10 -6.5t-10 -1.5h-31z" />
<glyph unicode="&#x159;" horiz-adv-x="313" d="M22 0zM158 490q12 0 11 -10l-7 -53h2q25 32 56 48q30 15 72 15h31q8 0 10 -2.5t1 -9.5l-7 -34q-3 -11 -15 -11h-32q-29 0 -49 -7.5t-37 -22.5q-36 -31 -48 -98l-56 -292q-3 -13 -19 -13h-31q-18 0 -15 13l90 467q1 10 13 10h30zM228 571q-5 0 -8.5 1.5t-7.5 6.5l-84 119 q-8 11 4 20l20 15q14 8 22 -2l75 -92h5l112 94q11 10 22 2l23 -19q11 -7 -3 -19l-129 -118q-5 -5 -10 -6.5t-10 -1.5h-31z" />
<glyph unicode="&#x15a;" horiz-adv-x="488" d="M6 0zM187 -9q-50 0 -89.5 8t-76.5 23q-15 5 -9 22l8 26q6 17 23 10q31 -14 68.5 -22.5t71.5 -8.5q60 0 101 21t58 76q5 17 9 33.5t4 29.5q0 35 -18.5 52.5t-63.5 29.5l-77 21q-62 17 -85.5 48.5t-23.5 79.5q0 18 5.5 42t13.5 49q9 28 24.5 51t39.5 39.5t59 25.5t84 9 q44 0 80 -6t68 -17q13 -5 7 -20l-10 -28q-6 -14 -23 -8q-35 11 -65.5 15.5t-62.5 4.5q-62 0 -93 -21.5t-43 -63.5q-6 -22 -9.5 -36.5t-3.5 -31.5q0 -26 13.5 -42.5t53.5 -27.5l91 -25q60 -17 85.5 -45t25.5 -79q0 -18 -4.5 -40.5t-12.5 -51.5q-21 -74 -76 -108t-147 -34z M446 829q19 9 25 -7l13 -35q3 -8 -0.5 -12.5t-17.5 -9.5l-186 -66q-16 -6 -21 7l-8 19q-6 15 8 21z" />
<glyph unicode="&#x15b;" horiz-adv-x="404" d="M3 0zM153 -9q-31 0 -66.5 7t-69.5 21q-14 5 -9 19l9 28q5 14 20 7q64 -26 120 -26q40 0 68 11t42 40q7 14 10.5 28.5t3.5 33.5q0 21 -13.5 33t-47.5 23l-62 19q-92 28 -92 100q0 17 2.5 31t7.5 31q17 55 56.5 78.5t113.5 23.5q61 0 117 -19q16 -6 12 -18l-9 -29 q-5 -14 -21 -8q-24 9 -51 13.5t-52 4.5q-49 0 -70.5 -14t-32.5 -42q-5 -14 -7 -25t-2 -20q0 -18 10.5 -30.5t39.5 -21.5l66 -20q27 -8 45.5 -17t30 -21t17 -28.5t5.5 -39.5q0 -15 -4.5 -37.5t-11.5 -39.5q-23 -54 -67 -75t-108 -21zM374 715q19 9 25 -7l13 -35 q3 -8 -0.5 -12.5t-17.5 -9.5l-186 -66q-16 -6 -21 7l-8 19q-6 15 8 21z" />
<glyph unicode="&#x15c;" horiz-adv-x="488" d="M6 0zM187 -9q-50 0 -89.5 8t-76.5 23q-15 5 -9 22l8 26q6 17 23 10q31 -14 68.5 -22.5t71.5 -8.5q60 0 101 21t58 76q5 17 9 33.5t4 29.5q0 35 -18.5 52.5t-63.5 29.5l-77 21q-62 17 -85.5 48.5t-23.5 79.5q0 18 5.5 42t13.5 49q9 28 24.5 51t39.5 39.5t59 25.5t84 9 q44 0 80 -6t68 -17q13 -5 7 -20l-10 -28q-6 -14 -23 -8q-35 11 -65.5 15.5t-62.5 4.5q-62 0 -93 -21.5t-43 -63.5q-6 -22 -9.5 -36.5t-3.5 -31.5q0 -26 13.5 -42.5t53.5 -27.5l91 -25q60 -17 85.5 -45t25.5 -79q0 -18 -4.5 -40.5t-12.5 -51.5q-21 -74 -76 -108t-147 -34z M377 850q5 0 8.5 -1.5t7.5 -6.5l84 -111q8 -11 -4 -20l-20 -15q-14 -8 -22 2l-75 84h-5l-112 -86q-11 -10 -22 -2l-23 19q-11 7 3 19l129 110q5 5 10 6.5t10 1.5h31z" />
<glyph unicode="&#x15d;" horiz-adv-x="404" d="M3 0zM153 -9q-31 0 -66.5 7t-69.5 21q-14 5 -9 19l9 28q5 14 20 7q64 -26 120 -26q40 0 68 11t42 40q7 14 10.5 28.5t3.5 33.5q0 21 -13.5 33t-47.5 23l-62 19q-92 28 -92 100q0 17 2.5 31t7.5 31q17 55 56.5 78.5t113.5 23.5q61 0 117 -19q16 -6 12 -18l-9 -29 q-5 -14 -21 -8q-24 9 -51 13.5t-52 4.5q-49 0 -70.5 -14t-32.5 -42q-5 -14 -7 -25t-2 -20q0 -18 10.5 -30.5t39.5 -21.5l66 -20q27 -8 45.5 -17t30 -21t17 -28.5t5.5 -39.5q0 -15 -4.5 -37.5t-11.5 -39.5q-23 -54 -67 -75t-108 -21zM304 738q5 0 8.5 -1.5t7.5 -6.5l84 -119 q8 -11 -4 -20l-20 -15q-14 -8 -22 2l-75 92h-5l-112 -94q-11 -10 -22 -2l-23 19q-11 7 3 19l129 118q5 5 10 6.5t10 1.5h31z" />
<glyph unicode="&#x15e;" horiz-adv-x="488" d="M196 -64q8 2 18 2.5t19 0.5q26 0 43 -14.5t17 -44.5q0 -17 -3 -32q-5 -21 -13 -35t-26 -26q-14 -10 -35 -14t-46 -4q-16 0 -39.5 4t-41.5 11q-8 3 -5 12l7 20q4 11 15 8q15 -5 33 -8.5t32 -3.5q30 0 44 8q7 4 12.5 10t8.5 17q2 6 2 10v10q0 28 -34 28q-11 0 -24 -1.5 t-25 -3.5q-7 -1 -13 5l-7 9q-6 6 0 16l35 70v1q-44 2 -79.5 9.5t-69.5 21.5q-15 5 -9 22l8 26q6 17 23 10q31 -14 68.5 -22.5t71.5 -8.5q60 0 101 21t58 76q5 17 9 33.5t4 29.5q0 35 -18.5 52.5t-63.5 29.5l-77 21q-62 17 -85.5 48.5t-23.5 79.5q0 18 5.5 42t13.5 49 q9 28 24.5 51t39.5 39.5t59 25.5t84 9q44 0 80 -6t68 -17q13 -5 7 -20l-10 -28q-6 -14 -23 -8q-35 11 -65.5 15.5t-62.5 4.5q-62 0 -93 -21.5t-43 -63.5q-6 -22 -9.5 -36.5t-3.5 -31.5q0 -26 13.5 -42.5t53.5 -27.5l91 -25q60 -17 85.5 -45t25.5 -79q0 -18 -4.5 -40.5 t-12.5 -51.5q-19 -66 -65 -100t-121 -40q0 -1 -0.5 -1.5t-0.5 -2.5z" />
<glyph unicode="&#x15f;" horiz-adv-x="404" d="M159 -64q8 2 18 2.5t19 0.5q26 0 43 -14.5t17 -44.5q0 -17 -3 -32q-5 -21 -13 -35t-26 -26q-14 -10 -35 -14t-46 -4q-16 0 -39.5 4t-41.5 11q-8 3 -5 12l7 20q4 11 15 8q15 -5 33 -8.5t32 -3.5q30 0 44 8q7 4 12.5 10t8.5 17q2 6 2 10v10q0 28 -34 28q-11 0 -24 -1.5 t-25 -3.5q-7 -1 -13 5l-7 9q-6 6 0 16l35 70v2q-28 2 -57.5 9t-58.5 18q-14 5 -9 19l9 28q5 14 20 7q64 -26 120 -26q40 0 68 11t42 40q7 14 10.5 28.5t3.5 33.5q0 21 -13.5 33t-47.5 23l-62 19q-92 28 -92 100q0 17 2.5 31t7.5 31q17 55 56.5 78.5t113.5 23.5q61 0 117 -19 q16 -6 12 -18l-9 -29q-5 -14 -21 -8q-24 9 -51 13.5t-52 4.5q-49 0 -72 -14t-31 -42q-4 -13 -6.5 -24t-2.5 -20q0 -17 10.5 -30.5t39.5 -22.5l66 -20q27 -8 45.5 -17t30 -21t17 -28.5t5.5 -39.5q0 -15 -4.5 -37.5t-11.5 -39.5q-20 -47 -55 -68t-86 -26q0 -1 -0.5 -1.5 t-0.5 -2.5z" />
<glyph unicode="&#x160;" horiz-adv-x="488" d="M6 0zM187 -9q-50 0 -89.5 8t-76.5 23q-15 5 -9 22l8 26q6 17 23 10q31 -14 68.5 -22.5t71.5 -8.5q60 0 101 21t58 76q5 17 9 33.5t4 29.5q0 35 -18.5 52.5t-63.5 29.5l-77 21q-62 17 -85.5 48.5t-23.5 79.5q0 18 5.5 42t13.5 49q9 28 24.5 51t39.5 39.5t59 25.5t84 9 q44 0 80 -6t68 -17q13 -5 7 -20l-10 -28q-6 -14 -23 -8q-35 11 -65.5 15.5t-62.5 4.5q-62 0 -93 -21.5t-43 -63.5q-6 -22 -9.5 -36.5t-3.5 -31.5q0 -26 13.5 -42.5t53.5 -27.5l91 -25q60 -17 85.5 -45t25.5 -79q0 -18 -4.5 -40.5t-12.5 -51.5q-21 -74 -76 -108t-147 -34z M312 700q-5 0 -8.5 1.5t-7.5 6.5l-84 119q-8 11 4 20l20 15q14 8 22 -2l75 -92h5l112 94q11 10 22 2l23 -19q11 -7 -3 -19l-129 -118q-5 -5 -10 -6.5t-10 -1.5h-31z" />
<glyph unicode="&#x161;" horiz-adv-x="404" d="M3 0zM153 -9q-31 0 -66.5 7t-69.5 21q-14 5 -9 19l9 28q5 14 20 7q64 -26 120 -26q40 0 68 11t42 40q7 14 10.5 28.5t3.5 33.5q0 21 -13.5 33t-47.5 23l-62 19q-92 28 -92 100q0 17 2.5 31t7.5 31q17 55 56.5 78.5t113.5 23.5q61 0 117 -19q16 -6 12 -18l-9 -29 q-5 -14 -21 -8q-24 9 -51 13.5t-52 4.5q-49 0 -70.5 -14t-32.5 -42q-5 -14 -7 -25t-2 -20q0 -18 10.5 -30.5t39.5 -21.5l66 -20q27 -8 45.5 -17t30 -21t17 -28.5t5.5 -39.5q0 -15 -4.5 -37.5t-11.5 -39.5q-23 -54 -67 -75t-108 -21zM244 571q-5 0 -8.5 1.5t-7.5 6.5l-84 119 q-8 11 4 20l20 15q14 8 22 -2l75 -92h5l112 94q11 10 22 2l23 -19q11 -7 -3 -19l-129 -118q-5 -5 -10 -6.5t-10 -1.5h-31z" />
<glyph unicode="&#x162;" horiz-adv-x="465" d="M74 0zM88 588q-9 0 -11.5 4t-0.5 11l6 31q2 10 7.5 11.5t10.5 1.5h409q9 0 11.5 -3.5t0.5 -11.5l-6 -29q-2 -7 -5.5 -11t-12.5 -4h-170l-111 -571q-3 -17 -18 -17h-39q-15 0 -12 17l111 571h-170zM179 -69q29 0 29 -25q0 -6 -1.5 -16.5t-3.5 -18.5q-7 -35 -28 -65 t-59 -61q-5 -4 -9.5 -5.5t-8.5 2.5l-11 12q-3 4 -4 6.5t4 7.5q11 10 24.5 24t21.5 27q11 15 -3 23q-17 8 -17 25q0 3 1 10t4 21q7 33 37 33h24z" />
<glyph unicode="&#x163;" horiz-adv-x="310" d="M49 0zM303 490q9 0 8 -10l-7 -37q-2 -10 -12 -10h-107l-54 -289q-6 -31 -5.5 -49t11.5 -29q8 -8 21.5 -11t40.5 -3h42q5 0 8.5 -1.5t1.5 -9.5l-6 -30q-2 -11 -13 -11h-47q-33 0 -57.5 5.5t-39.5 18.5q-27 22 -27 68q0 11 2 25t4 27l53 289h-61q-10 0 -8 11l5 24 q3 12 13 13l62 9l22 113q2 12 14 12h41q12 0 10 -12l-22 -113h107zM148 -69q29 0 29 -25q0 -6 -1.5 -16.5t-3.5 -18.5q-7 -35 -28 -65t-59 -61q-5 -4 -9.5 -5.5t-8.5 2.5l-11 12q-3 4 -4 6.5t4 7.5q11 10 24.5 24t21.5 27q11 15 -3 23q-17 8 -17 25q0 3 1 10t4 21 q7 33 37 33h24z" />
<glyph unicode="&#x164;" horiz-adv-x="465" d="M74 0zM88 588q-9 0 -11.5 4t-0.5 11l6 31q2 10 7.5 11.5t10.5 1.5h409q9 0 11.5 -3.5t0.5 -11.5l-6 -29q-2 -7 -5.5 -11t-12.5 -4h-170l-111 -571q-3 -17 -18 -17h-39q-15 0 -12 17l111 571h-170zM297 700q-5 0 -8.5 1.5t-7.5 6.5l-84 119q-8 11 4 20l20 15q14 8 22 -2 l75 -92h5l112 94q11 10 22 2l23 -19q11 -7 -3 -19l-129 -118q-5 -5 -10 -6.5t-10 -1.5h-31z" />
<glyph unicode="&#x165;" horiz-adv-x="310" d="M375 722q29 0 29 -21q0 -8 -6 -39q-12 -63 -71 -114q-10 -8 -18 -3l-11 12q-7 7 0 14q8 8 15 16t15 19q11 15 -3 23q-17 8 -17 26q0 3 1 10.5t4 23.5q6 33 41 33h21zM303 490q9 0 8 -10l-7 -37q-2 -10 -12 -10h-107l-54 -289q-6 -31 -5.5 -49t11.5 -29q8 -8 21.5 -11 t40.5 -3h42q5 0 8.5 -1.5t1.5 -9.5l-6 -30q-2 -11 -13 -11h-47q-33 0 -57.5 5.5t-39.5 18.5q-27 22 -27 68q0 11 2 25t4 27l53 289h-61q-10 0 -8 11l5 24q3 12 13 13l62 9l22 113q2 12 14 12h41q12 0 10 -12l-22 -113h107z" />
<glyph unicode="&#x166;" horiz-adv-x="465" d="M88 588q-9 0 -11.5 4t-0.5 11l6 31q2 10 7.5 11.5t10.5 1.5h409q9 0 11.5 -3.5t0.5 -11.5l-6 -29q-2 -7 -5.5 -11t-12.5 -4h-170l-45 -229h140q9 0 11.5 -4t0.5 -11l-5 -30q-2 -10 -7.5 -11.5t-10.5 -1.5h-140l-55 -284q-3 -17 -18 -17h-39q-15 0 -12 17l55 284h-134 q-9 0 -11.5 3.5t-0.5 11.5l5 28q2 7 5.5 11t12.5 4h134l45 229h-170z" />
<glyph unicode="&#x167;" horiz-adv-x="309" d="M152 259l-21 -115q-6 -31 -5.5 -49t11.5 -29q8 -8 21.5 -11t40.5 -3h42q5 0 8.5 -1.5t1.5 -9.5l-6 -30q-2 -11 -13 -11h-47q-33 0 -57.5 5.5t-39.5 18.5q-27 22 -27 68q0 11 2 25t4 27l21 115h-59q-10 0 -8 11l5 24q3 12 13 13l59 8l22 118h-61q-10 0 -8 11l5 24 q3 12 13 13l62 9l22 113q2 12 14 12h41q12 0 10 -12l-22 -113h107q9 0 8 -10l-7 -37q-2 -10 -12 -10h-107l-22 -117h110q9 0 8 -10l-7 -37q-2 -10 -12 -10h-110z" />
<glyph unicode="&#x168;" horiz-adv-x="585" d="M53 0zM141 630q5 17 18 17h39q17 0 12 -17l-80 -413q-4 -21 -6 -38t-2 -31q0 -54 35.5 -76t94.5 -22q42 0 71 8t52 28q11 10 20 21.5t16 26.5t13 35t11 48l80 413q5 17 18 17h39q17 0 12 -17l-81 -420q-12 -62 -31 -103.5t-50 -67.5t-75 -37t-105 -11q-38 0 -72.5 7.5 t-60.5 25t-41 46.5t-15 73q0 15 1.5 32t5.5 35zM232 730q-10 7 -1 20q28 39 56.5 58t55.5 19q19 0 30.5 -4.5t25.5 -15.5l25 -20q11 -9 17.5 -12.5t15.5 -3.5q12 0 26 11t35 34q10 12 20 3l17 -14q10 -7 0 -20q-27 -38 -56 -56.5t-58 -18.5q-17 0 -29.5 4.5t-24.5 14.5 l-25 20q-9 8 -15 12t-14 4q-15 0 -28 -9t-35 -35q-10 -12 -22 -3z" />
<glyph unicode="&#x169;" horiz-adv-x="489" d="M45 0zM459 490q13 0 10 -13l-60 -310q-10 -52 -23.5 -82t-37.5 -51q-26 -23 -60.5 -33t-90.5 -10q-74 0 -113 27.5t-39 88.5q0 13 2 27.5t5 31.5l60 310q3 14 17 14h37q14 0 11 -14l-59 -300q-7 -34 -7 -59q0 -35 20.5 -51.5t75.5 -16.5q34 0 57 7t40 24q17 16 25.5 37 t16.5 60l59 300q2 13 14 13h40zM153 609q-10 7 -1 20q28 39 56.5 58t55.5 19q19 0 30.5 -4.5t25.5 -15.5l25 -20q11 -9 17.5 -12.5t15.5 -3.5q12 0 26 11t35 34q10 12 20 3l17 -14q10 -7 0 -20q-27 -38 -56 -56.5t-58 -18.5q-32 0 -54 19l-25 20q-8 8 -14.5 12t-14.5 4 q-15 0 -28 -9t-35 -35q-10 -12 -22 -3z" />
<glyph unicode="&#x16a;" horiz-adv-x="585" d="M53 0zM141 630q5 17 18 17h39q17 0 12 -17l-80 -413q-4 -21 -6 -38t-2 -31q0 -54 35.5 -76t94.5 -22q42 0 71 8t52 28q11 10 20 21.5t16 26.5t13 35t11 48l80 413q5 17 18 17h39q17 0 12 -17l-81 -420q-12 -62 -31 -103.5t-50 -67.5t-75 -37t-105 -11q-38 0 -72.5 7.5 t-60.5 25t-41 46.5t-15 73q0 15 1.5 32t5.5 35zM503 792q16 0 13 -15l-8 -35q-3 -13 -17 -13h-226q-14 0 -11 15l7 33q2 7 5 11t12 4h225z" />
<glyph unicode="&#x16b;" horiz-adv-x="489" d="M45 0zM459 490q13 0 10 -13l-60 -310q-10 -52 -23.5 -82t-37.5 -51q-26 -23 -60.5 -33t-90.5 -10q-74 0 -113 27.5t-39 88.5q0 13 2 27.5t5 31.5l60 310q3 14 17 14h37q14 0 11 -14l-59 -300q-7 -34 -7 -59q0 -35 20.5 -51.5t75.5 -16.5q34 0 57 7t40 24q17 16 25.5 37 t16.5 60l59 300q2 13 14 13h40zM431 679q16 0 13 -15l-8 -35q-3 -13 -17 -13h-226q-14 0 -11 15l7 33q1 7 4.5 11t12.5 4h225z" />
<glyph unicode="&#x16c;" horiz-adv-x="585" d="M53 0zM141 630q5 17 18 17h39q17 0 12 -17l-80 -413q-4 -21 -6 -38t-2 -31q0 -54 35.5 -76t94.5 -22q42 0 71 8t52 28q11 10 20 21.5t16 26.5t13 35t11 48l80 413q5 17 18 17h39q17 0 12 -17l-81 -420q-12 -62 -31 -103.5t-50 -67.5t-75 -37t-105 -11q-38 0 -72.5 7.5 t-60.5 25t-41 46.5t-15 73q0 15 1.5 32t5.5 35zM380 691q-54 0 -88.5 26t-39.5 81q0 8 2 13.5t10 7.5l30 8q16 5 18 -11q4 -38 23 -54t51 -16q30 0 55 15.5t49 57.5q7 12 20 8l26 -8q8 -2 8.5 -6.5t-2.5 -11.5q-25 -56 -66.5 -83t-95.5 -27z" />
<glyph unicode="&#x16d;" horiz-adv-x="489" d="M45 0zM459 490q13 0 10 -13l-60 -310q-10 -52 -23.5 -82t-37.5 -51q-26 -23 -60.5 -33t-90.5 -10q-74 0 -113 27.5t-39 88.5q0 13 2 27.5t5 31.5l60 310q3 14 17 14h37q14 0 11 -14l-59 -300q-7 -34 -7 -59q0 -35 20.5 -51.5t75.5 -16.5q34 0 57 7t40 24q17 16 25.5 37 t16.5 60l59 300q2 13 14 13h40zM312 575q-54 0 -88.5 26t-39.5 81q0 8 2 13.5t10 7.5l30 8q16 5 18 -11q4 -38 23 -54t51 -16q30 0 55 15.5t49 57.5q7 12 20 8l26 -8q8 -2 8.5 -6.5t-2.5 -11.5q-25 -56 -66.5 -83t-95.5 -27z" />
<glyph unicode="&#x16e;" horiz-adv-x="585" d="M53 0zM141 630q5 17 18 17h39q17 0 12 -17l-80 -413q-4 -21 -6 -38t-2 -31q0 -54 35.5 -76t94.5 -22q42 0 71 8t52 28q11 10 20 21.5t16 26.5t13 35t11 48l80 413q5 17 18 17h39q17 0 12 -17l-81 -420q-12 -62 -31 -103.5t-50 -67.5t-75 -37t-105 -11q-38 0 -72.5 7.5 t-60.5 25t-41 46.5t-15 73q0 15 1.5 32t5.5 35zM291 756q0 23 8.5 42.5t23.5 33.5t34.5 21.5t42.5 7.5q35 0 56 -21t21 -53q0 -49 -31.5 -78.5t-76.5 -29.5q-36 0 -57 21t-21 56zM392 814q-23 0 -38 -15.5t-15 -38.5q0 -15 9.5 -24.5t26.5 -9.5q23 0 38.5 15.5t15.5 36.5 q0 16 -10 26t-27 10z" />
<glyph unicode="&#x16f;" horiz-adv-x="489" d="M45 0zM459 490q13 0 10 -13l-60 -310q-10 -52 -23.5 -82t-37.5 -51q-26 -23 -60.5 -33t-90.5 -10q-74 0 -113 27.5t-39 88.5q0 13 2 27.5t5 31.5l60 310q3 14 17 14h37q14 0 11 -14l-59 -300q-7 -34 -7 -59q0 -35 20.5 -51.5t75.5 -16.5q34 0 57 7t40 24q17 16 25.5 37 t16.5 60l59 300q2 13 14 13h40zM225 633q0 23 8.5 42.5t23.5 33.5t34.5 21.5t42.5 7.5q35 0 56 -21t21 -53q0 -49 -31.5 -78.5t-76.5 -29.5q-36 0 -57 21t-21 56zM326 691q-23 0 -38 -15.5t-15 -38.5q0 -15 9.5 -24.5t26.5 -9.5q23 0 38.5 15.5t15.5 36.5q0 16 -10 26 t-27 10z" />
<glyph unicode="&#x170;" horiz-adv-x="585" d="M53 0zM141 630q5 17 18 17h39q17 0 12 -17l-80 -413q-4 -21 -6 -38t-2 -31q0 -54 35.5 -76t94.5 -22q42 0 71 8t52 28q11 10 20 21.5t16 26.5t13 35t11 48l80 413q5 17 18 17h39q17 0 12 -17l-81 -420q-12 -62 -31 -103.5t-50 -67.5t-75 -37t-105 -11q-38 0 -72.5 7.5 t-60.5 25t-41 46.5t-15 73q0 15 1.5 32t5.5 35zM401 849q16 12 27 -4l17 -23q10 -15 -7 -26l-170 -102q-8 -5 -12.5 -4t-9.5 8l-13 17q-8 12 4 21zM604 849q16 12 27 -4l17 -23q10 -15 -7 -26l-170 -102q-8 -5 -12.5 -4t-9.5 8l-13 17q-8 12 4 21z" />
<glyph unicode="&#x171;" horiz-adv-x="489" d="M45 0zM459 490q13 0 10 -13l-60 -310q-10 -52 -23.5 -82t-37.5 -51q-26 -23 -60.5 -33t-90.5 -10q-74 0 -113 27.5t-39 88.5q0 13 2 27.5t5 31.5l60 310q3 14 17 14h37q14 0 11 -14l-59 -300q-7 -34 -7 -59q0 -35 20.5 -51.5t75.5 -16.5q34 0 57 7t40 24q17 16 25.5 37 t16.5 60l59 300q2 13 14 13h40zM337 736q16 12 27 -4l17 -23q10 -15 -7 -26l-170 -102q-8 -5 -12.5 -4t-9.5 8l-13 17q-8 12 4 21zM540 736q16 12 27 -4l17 -23q10 -15 -7 -26l-170 -102q-8 -5 -12.5 -4t-9.5 8l-13 17q-8 12 4 21z" />
<glyph unicode="&#x172;" horiz-adv-x="585" d="M141 630q3 17 18 17h39q15 0 12 -17l-80 -413q-9 -48 -6.5 -78t17.5 -50q14 -18 40 -28.5t71 -10.5q40 0 69.5 8.5t53.5 28.5t38 52.5t22 77.5l80 413q3 17 18 17h39q15 0 12 -17l-81 -420q-7 -35 -15 -61.5t-19 -46.5t-24.5 -36t-30.5 -29q-15 -12 -31 -19t-28 -12 q-54 -20 -83.5 -52.5t-29.5 -64.5q0 -19 9.5 -26t27.5 -7q13 0 26 3t24 8q13 6 13 -5v-28q0 -6 -1.5 -9t-9.5 -6q-17 -7 -34.5 -11t-42.5 -4q-39 0 -61 17.5t-22 52.5q0 32 23.5 63.5t63.5 53.5h-17q-110 0 -155 49q-26 28 -32 68t6 102z" />
<glyph unicode="&#x173;" horiz-adv-x="489" d="M459 490q13 0 10 -13l-63 -325q-10 -49 -24.5 -77.5t-40.5 -47.5q-10 -8 -19.5 -12.5t-20.5 -10.5q-41 -22 -69.5 -51.5t-28.5 -70.5q0 -26 37 -26q13 0 26 3t24 8q11 6 13 -5v-28q1 -6 -1 -9t-10 -6q-17 -7 -34.5 -11t-42.5 -4q-39 0 -61 14.5t-22 46.5q0 35 23.5 68.5 t65.5 57.5q-7 -1 -11.5 -0.5t-12.5 0.5q-50 0 -80.5 10t-48.5 30q-34 39 -16 135l60 310q3 14 17 14h37q14 0 11 -14l-59 -300q-8 -43 -6.5 -66.5t12.5 -37.5q11 -13 30 -18t53 -5q37 0 57.5 5.5t37.5 19.5t26 35t15 53l62 315q2 13 14 13h40z" />
<glyph unicode="&#x174;" horiz-adv-x="778" d="M81 0zM846 628q-54 -141 -116.5 -286t-135.5 -307q-9 -20 -20 -27.5t-27 -7.5h-48q-16 0 -25.5 7.5t-11.5 27.5q-10 124 -14.5 246t-2.5 258h-8q-50 -122 -100.5 -245.5t-112.5 -258.5q-9 -20 -20.5 -27.5t-28.5 -7.5h-44q-15 0 -24.5 7.5t-11.5 27.5q-7 107 -10.5 256.5 t-2.5 338.5q0 10 4.5 13.5t16.5 3.5h29q12 0 16.5 -3t4.5 -14q-2 -141 -1 -282.5t9 -281.5h11q54 127 107.5 253.5t109.5 263.5q8 18 14.5 25t25.5 7h45q19 0 27 -7t8 -25q0 -129 4 -257.5t13 -259.5h11q66 144 126.5 290.5t109.5 274.5q7 16 24 16h38q19 0 11 -19zM509 850 q5 0 8.5 -1.5t7.5 -6.5l84 -111q8 -11 -4 -20l-20 -15q-14 -8 -22 2l-75 84h-5l-112 -86q-11 -10 -22 -2l-23 19q-11 7 3 19l129 110q5 5 10 6.5t10 1.5h31z" />
<glyph unicode="&#x175;" horiz-adv-x="650" d="M51 0zM383 466q14 0 19.5 -6.5t6.5 -23.5q3 -94 7 -186t10 -199h5q45 95 87.5 196.5t87.5 225.5q5 17 22 17h35q17 0 11 -17q-44 -104 -86.5 -212t-97.5 -220q-11 -25 -21.5 -33t-27.5 -8h-34q-18 0 -27 8.5t-11 32.5q-8 90 -11.5 180t-5.5 185h-5q-36 -93 -76.5 -183 t-82.5 -182q-11 -24 -22.5 -32.5t-29.5 -8.5h-34q-17 0 -25 8t-10 33q-4 51 -7 102t-5 104t-3 108.5t-1 117.5q0 17 17 17h33q16 0 16 -17q-5 -106 -2 -210t11 -212h5q43 89 82.5 183.5t87.5 201.5q14 30 37 30h45zM413 738q5 0 8.5 -1.5t7.5 -6.5l84 -119q8 -11 -4 -20 l-20 -15q-14 -8 -22 2l-75 92h-5l-112 -94q-11 -10 -22 -2l-23 19q-11 7 3 19l129 118q5 5 10 6.5t10 1.5h31z" />
<glyph unicode="&#x176;" horiz-adv-x="453" d="M81 0zM180 220q-39 100 -64 201.5t-34 213.5q-1 12 13 12h44q14 0 15 -10q9 -98 24.5 -181.5t43.5 -164.5h7q59 85 111 168.5t99 177.5q5 10 18 10h44q6 0 9.5 -2.5t0.5 -9.5q-26 -55 -54.5 -106t-60 -101.5t-68 -102t-79.5 -107.5l-39 -201q-3 -17 -18 -17h-39 q-15 0 -12 17zM348 850q5 0 8.5 -1.5t7.5 -6.5l84 -111q8 -11 -4 -20l-20 -15q-14 -8 -22 2l-75 84h-5l-112 -86q-11 -10 -22 -2l-23 19q-11 7 3 19l129 110q5 5 10 6.5t10 1.5h31z" />
<glyph unicode="&#x177;" horiz-adv-x="413" d="M51 0zM56 -140q23 39 44.5 75.5t41.5 71.5q-20 3 -33.5 17.5t-18.5 45.5q-13 82 -22 179.5t-16 228.5q0 12 13 12h42q12 0 12 -11q5 -128 13 -225.5t18 -172.5q3 -23 20 -24q27 50 52 100t49.5 101.5t48.5 107t50 116.5q3 8 13 8h45q7 0 8.5 -4t-0.5 -9 q-40 -94 -77 -174.5t-77 -160.5q-38 -76 -78.5 -150t-87.5 -155q-5 -9 -10.5 -12t-14.5 1l-31 12q-8 3 -8.5 9t4.5 13zM297 738q5 0 8.5 -1.5t7.5 -6.5l84 -119q8 -11 -4 -20l-20 -15q-14 -8 -22 2l-75 92h-5l-112 -94q-11 -10 -22 -2l-23 19q-11 7 3 19l129 118q5 5 10 6.5 t10 1.5h31z" />
<glyph unicode="&#x178;" horiz-adv-x="453" d="M81 0zM180 220q-39 100 -64 201.5t-34 213.5q-1 12 13 12h44q14 0 15 -10q9 -98 24.5 -181.5t43.5 -164.5h7q59 85 111 168.5t99 177.5q5 10 18 10h44q6 0 9.5 -2.5t0.5 -9.5q-26 -55 -54.5 -106t-60 -101.5t-68 -102t-79.5 -107.5l-39 -201q-3 -17 -18 -17h-39 q-15 0 -12 17zM250 823q37 0 37 -29v-7.5t-5 -25.5q-4 -20 -18 -29.5t-34 -9.5h-10q-16 0 -25.5 7t-9.5 21q0 2 0.5 8t4.5 26q4 19 17.5 29t32.5 10h10zM412 823q37 0 37 -29q0 -2 -1 -10.5t-4 -22.5q-4 -20 -18 -29.5t-34 -9.5h-10q-16 0 -25.5 7t-9.5 21q0 4 1.5 12 t3.5 22q3 19 16.5 29t33.5 10h10z" />
<glyph unicode="&#x179;" horiz-adv-x="491" d="M0 0zM-5 34q2 13 9 22.5t20 25.5l405 506h-316q-13 0 -10 14l6 32q3 13 16 13h374q11 0 16 -4.5t3 -16.5l-2 -14q-2 -14 -10.5 -26.5t-30.5 -40.5l-388 -486h313q11 0 10 -13l-6 -33q-3 -13 -15 -13h-378q-20 0 -18 16zM440 829q19 9 25 -7l13 -35q3 -8 -0.5 -12.5 t-17.5 -9.5l-186 -66q-16 -6 -21 7l-8 19q-6 15 8 21z" />
<glyph unicode="&#x17a;" horiz-adv-x="405" d="M0 0zM323 12q-3 -12 -16 -12h-301q-20 0 -16 19l2 10q2 10 7.5 19t18.5 25l295 360h-231q-12 0 -9 14l6 31q3 12 14 12h299q18 0 15 -19l-2 -13q-1 -5 -3 -9.5t-6.5 -10t-11 -13t-16.5 -19.5l-288 -349h240q13 0 10 -12zM376 715q19 9 25 -7l13 -35q3 -8 -0.5 -12.5 t-17.5 -9.5l-186 -66q-16 -6 -21 7l-8 19q-6 15 8 21z" />
<glyph unicode="&#x17b;" horiz-adv-x="491" d="M0 0zM-5 34q2 13 9 22.5t20 25.5l405 506h-316q-13 0 -10 14l6 32q3 13 16 13h374q11 0 16 -4.5t3 -16.5l-2 -14q-2 -14 -10.5 -26.5t-30.5 -40.5l-388 -486h313q11 0 10 -13l-6 -33q-3 -13 -15 -13h-378q-20 0 -18 16zM277 746q0 29 19.5 51.5t51.5 22.5 q24 0 37.5 -13.5t13.5 -37.5q0 -15 -6.5 -27.5t-16.5 -21.5t-23.5 -14.5t-26.5 -5.5q-20 0 -34.5 13t-14.5 33z" />
<glyph unicode="&#x17c;" horiz-adv-x="405" d="M0 0zM323 12q-3 -12 -16 -12h-301q-20 0 -16 19l2 10q2 10 7.5 19t18.5 25l295 360h-231q-12 0 -9 14l6 31q3 12 14 12h299q18 0 15 -19l-2 -13q-1 -5 -3 -9.5t-6.5 -10t-11 -13t-16.5 -19.5l-288 -349h240q13 0 10 -12zM212 633q0 29 19.5 51.5t51.5 22.5 q24 0 37.5 -13.5t13.5 -37.5q0 -15 -6.5 -27.5t-16.5 -21.5t-23.5 -14.5t-26.5 -5.5q-20 0 -34.5 13t-14.5 33z" />
<glyph unicode="&#x17d;" horiz-adv-x="491" d="M0 0zM-5 34q2 13 9 22.5t20 25.5l405 506h-316q-13 0 -10 14l6 32q3 13 16 13h374q11 0 16 -4.5t3 -16.5l-2 -14q-2 -14 -10.5 -26.5t-30.5 -40.5l-388 -486h313q11 0 10 -13l-6 -33q-3 -13 -15 -13h-378q-20 0 -18 16zM314 700q-5 0 -8.5 1.5t-7.5 6.5l-84 119 q-8 11 4 20l20 15q14 8 22 -2l75 -92h5l112 94q11 10 22 2l23 -19q11 -7 -3 -19l-129 -118q-5 -5 -10 -6.5t-10 -1.5h-31z" />
<glyph unicode="&#x17e;" horiz-adv-x="405" d="M0 0zM323 12q-3 -12 -16 -12h-301q-20 0 -16 19l2 10q2 10 7.5 19t18.5 25l295 360h-231q-12 0 -9 14l6 31q3 12 14 12h299q18 0 15 -19l-2 -13q-1 -5 -3 -9.5t-6.5 -10t-11 -13t-16.5 -19.5l-288 -349h240q13 0 10 -12zM245 571q-5 0 -8.5 1.5t-7.5 6.5l-84 119 q-8 11 4 20l20 15q14 8 22 -2l75 -92h5l112 94q11 10 22 2l23 -19q11 -7 -3 -19l-129 -118q-5 -5 -10 -6.5t-10 -1.5h-31z" />
<glyph unicode="&#x17f;" horiz-adv-x="246" d="M6 -177q-5 0 -8 3.5t-1 8.5q11 30 20 56.5t16 52.5t13 54t12 62l67 373h-61q-10 0 -8 11l5 24q3 12 13 13l62 9l6 31q8 42 20.5 73.5t32.5 51.5t50.5 30t75.5 10q44 0 78 -10q13 -4 8 -18l-8 -23q-4 -13 -17 -10q-12 3 -26.5 5t-33.5 2q-26 0 -45 -4t-32 -16t-22 -33.5 t-15 -56.5l-83 -449q-8 -41 -15 -73.5t-14.5 -60.5t-16 -53t-18.5 -51q-5 -12 -14 -12h-41z" />
<glyph unicode="&#x192;" d="M194 -26q-12 -46 -26.5 -77.5t-34.5 -51t-48 -28t-68 -8.5q-20 0 -42 3.5t-36 8.5q-12 4 -8 17l9 26q4 12 17 8q14 -5 27.5 -7t31.5 -2q28 0 44 5.5t29 17.5q14 14 22 32t18 55l100 374h-59q-16 0 -12 14l5 21q3 11 20 14l61 10l31 115q12 46 26.5 77.5t34.5 51t48 28 t68 8.5q20 0 42 -3.5t36 -8.5q12 -4 8 -17l-9 -26q-4 -12 -17 -8q-10 4 -25.5 6.5t-33.5 2.5q-28 0 -44 -5.5t-29 -17.5q-14 -14 -22 -32t-18 -55l-31 -116h114q11 0 14 -4t1 -13l-7 -27q-2 -8 -6.5 -11.5t-15.5 -3.5h-115z" />
<glyph unicode="&#x1cd;" horiz-adv-x="559" d="M0 0zM373 647q27 0 34 -32q7 -35 13 -72.5t11 -76.5q14 -105 25 -217t19 -230q1 -10 -4.5 -14.5t-13.5 -4.5h-35q-19 0 -20 16q-2 47 -5.5 95t-7.5 94h-239q-11 -24 -21.5 -46.5l-21 -45t-21 -46.5t-22.5 -51q-7 -16 -24 -16h-35q-8 0 -12 4.5t0 14.5q51 115 106 228 t109 219q20 39 41 78t42 75q10 17 20 22.5t26 5.5h36zM263 442q-23 -47 -44.5 -91t-41.5 -89h208q-3 46 -7.5 89t-9.5 91q-4 33 -8.5 69t-10.5 71h-12q-20 -36 -39 -72t-35 -68zM344 700q-5 0 -8.5 1.5t-7.5 6.5l-84 119q-8 11 4 20l20 15q14 8 22 -2l75 -92h5l112 94 q11 10 22 2l23 -19q11 -7 -3 -19l-129 -118q-5 -5 -10 -6.5t-10 -1.5h-31z" />
<glyph unicode="&#x1ce;" horiz-adv-x="467" d="M26 0zM304 48h-2q-23 -32 -55 -44.5t-74 -12.5h-25q-122 0 -122 99q0 24 3.5 46.5t14.5 52.5q9 25 23 44t35.5 32t52.5 19.5t74 6.5h43q17 0 36.5 -1t36.5 -3l8 38q3 14 5.5 30t2.5 27q0 17 -4 28.5t-14.5 19t-29 10.5t-47.5 3q-33 0 -64.5 -5.5t-57.5 -13.5 q-19 -6 -22 11l-4 25q-1 13 13 17q32 9 72.5 15.5t72.5 6.5q71 0 110.5 -23t39.5 -80q0 -11 -2.5 -28.5t-5.5 -31.5l-63 -326q-1 -10 -12 -10h-33q-12 0 -10 12zM335 232q-18 2 -35 3t-37 1h-48q-25 0 -43 -3.5t-31.5 -12.5t-22.5 -23.5t-16 -36.5q-6 -19 -8.5 -34.5 t-2.5 -29.5q0 -50 68 -50h21q54 0 90 27t50 88zM279 571q-5 0 -8.5 1.5t-7.5 6.5l-84 119q-8 11 4 20l20 15q14 8 22 -2l75 -92h5l112 94q11 10 22 2l23 -19q11 -7 -3 -19l-129 -118q-5 -5 -10 -6.5t-10 -1.5h-31z" />
<glyph unicode="&#x1fa;" horiz-adv-x="559" d="M0 0zM373 647q27 0 34 -32q7 -35 13 -72.5t11 -76.5q14 -105 25 -217t19 -230q1 -10 -4.5 -14.5t-13.5 -4.5h-35q-19 0 -20 16q-2 47 -5.5 95t-7.5 94h-239q-11 -24 -21.5 -46.5l-21 -45t-21 -46.5t-22.5 -51q-7 -16 -24 -16h-35q-8 0 -12 4.5t0 14.5q51 115 106 228 t109 219q20 39 41 78t42 75q10 17 20 22.5t26 5.5h36zM263 442q-23 -47 -44.5 -91t-41.5 -89h208q-3 46 -7.5 89t-9.5 91q-4 33 -8.5 69t-10.5 71h-12q-20 -36 -39 -72t-35 -68zM519 1017q19 9 25 -7l13 -35q3 -8 -0.5 -12.5t-17.5 -9.5l-186 -66q-16 -6 -21 7l-8 19 q-6 15 8 21zM282 756q0 23 8.5 42.5t23.5 33.5t34.5 21.5t42.5 7.5q35 0 56 -21t21 -53q0 -49 -31.5 -78.5t-76.5 -29.5q-36 0 -57 21t-21 56zM383 814q-23 0 -38 -15.5t-15 -38.5q0 -15 9.5 -24.5t26.5 -9.5q23 0 38.5 15.5t15.5 36.5q0 16 -10 26t-27 10z" />
<glyph unicode="&#x1fb;" horiz-adv-x="467" d="M26 0zM304 48h-2q-23 -32 -55 -44.5t-74 -12.5h-25q-122 0 -122 99q0 24 3.5 46.5t14.5 52.5q9 25 23 44t35.5 32t52.5 19.5t74 6.5h43q17 0 36.5 -1t36.5 -3l8 38q3 14 5.5 30t2.5 27q0 17 -4 28.5t-14.5 19t-29 10.5t-47.5 3q-33 0 -64.5 -5.5t-57.5 -13.5 q-19 -6 -22 11l-4 25q-1 13 13 17q32 9 72.5 15.5t72.5 6.5q71 0 110.5 -23t39.5 -80q0 -11 -2.5 -28.5t-5.5 -31.5l-63 -326q-1 -10 -12 -10h-33q-12 0 -10 12zM335 232q-18 2 -35 3t-37 1h-48q-25 0 -43 -3.5t-31.5 -12.5t-22.5 -23.5t-16 -36.5q-6 -19 -8.5 -34.5 t-2.5 -29.5q0 -50 68 -50h21q54 0 90 27t50 88zM219 624q0 23 8.5 42.5t23.5 33.5t34.5 21.5t42.5 7.5q35 0 56 -21t21 -53q0 -49 -31.5 -78.5t-76.5 -29.5q-36 0 -57 21t-21 56zM320 682q-23 0 -38 -15.5t-15 -38.5q0 -15 9.5 -24.5t26.5 -9.5q23 0 38.5 15.5t15.5 36.5 q0 16 -10 26t-27 10zM448 890q19 9 25 -7l13 -35q3 -8 -0.5 -12.5t-17.5 -9.5l-186 -66q-16 -6 -21 7l-8 19q-6 15 8 21z" />
<glyph unicode="&#x1fc;" horiz-adv-x="819" d="M0 0zM821 647q9 0 11.5 -3.5t0.5 -11.5l-6 -29q-2 -7 -5.5 -11t-12.5 -4h-273l-43 -224h242q17 0 14 -15l-6 -29q-3 -15 -20 -15h-242l-38 -195q-6 -29 5 -41q5 -5 13.5 -7.5t25.5 -2.5h225q14 0 11 -15l-5 -29q-3 -15 -19 -15h-228q-32 0 -51 5t-32 17q-12 12 -17 31 t2 54l19 95h-202l-123 -186q-9 -16 -24 -16h-39q-9 0 -12 5t3 14q64 96 118.5 175t103.5 149t95 133t94 128q17 22 35.5 32.5t50.5 10.5h329zM462 588q-36 -50 -65 -90.5t-56 -78t-53 -75.5t-56 -82h172l63 326h-5zM752 829q19 9 25 -7l13 -35q3 -8 -0.5 -12.5t-17.5 -9.5 l-186 -66q-16 -6 -21 7l-8 19q-6 15 8 21z" />
<glyph unicode="&#x1fd;" horiz-adv-x="737" d="M26 0zM685 232q-3 -20 -29 -20l-258 1q-4 -20 -6.5 -40t-2.5 -36q0 -27 5.5 -44.5t18 -28t34 -14.5t54.5 -4q29 0 61.5 6t62.5 17q17 6 20 -8l5 -23q2 -7 -1 -11t-15 -9q-37 -14 -74 -20.5t-70 -6.5q-72 0 -105.5 19.5t-46.5 54.5q-25 -39 -68 -56.5t-97 -17.5h-25 q-122 0 -122 99q0 24 4.5 45.5t12.5 48.5q16 51 57.5 76.5t127.5 25.5h43q17 0 36.5 -1t36.5 -3l10 46q3 14 5 28.5t2 25.5q0 17 -4 28.5t-14.5 19t-29 10.5t-47.5 3q-33 0 -64.5 -5.5t-57.5 -13.5q-19 -6 -22 11l-4 25q-1 13 13 17q32 9 72.5 15.5t72.5 6.5q49 0 86 -13.5 t48 -48.5q22 32 56.5 47t90.5 15q70 0 109 -31t39 -101q0 -11 -1.5 -23.5t-3.5 -26.5zM334 227q-15 2 -33.5 3t-38.5 1h-48q-50 0 -75.5 -16t-37.5 -60q-5 -19 -7.5 -32.5t-2.5 -30.5q0 -46 68 -46h21q54 0 90 24.5t50 90.5zM548 444q-26 0 -46.5 -5t-35.5 -18 q-18 -16 -29.5 -42.5t-21.5 -76.5l-7 -37l203 -1q13 0 16 11l8 44q5 28 5 47q0 42 -20.5 60t-71.5 18zM566 715q19 9 25 -7l13 -35q3 -8 -0.5 -12.5t-17.5 -9.5l-186 -66q-16 -6 -21 7l-8 19q-6 15 8 21z" />
<glyph unicode="&#x1fe;" horiz-adv-x="586" d="M35 0zM456 829q19 9 25 -7l13 -35q3 -8 -0.5 -12.5t-17.5 -9.5l-186 -66q-16 -6 -21 7l-8 19q-6 15 8 21zM531 297q-18 -84 -42 -142.5t-57.5 -95t-78.5 -52.5t-105 -16q-69 0 -113 19l-52 -82q-5 -7 -8.5 -7.5t-9.5 2.5l-20 11q-10 6 -4 16l54 85q-44 42 -44 136 q0 47 8 94t16 85q10 48 20.5 86.5t23.5 69t30.5 55t40.5 44.5q60 51 168 51q70 0 115 -22l56 87q7 11 18 5l20 -11q10 -6 4 -16l-59 -93q21 -22 32 -53.5t11 -76.5q0 -47 -8 -94t-16 -85zM124 182q0 -26 2.5 -46t9.5 -36l302 478q-28 19 -83 19q-42 0 -69 -10t-50 -30 q-19 -17 -32.5 -38.5t-23.5 -48.5t-18.5 -60t-16.5 -73q-12 -56 -16.5 -91t-4.5 -64zM461 310q13 56 17 91t4 64q0 44 -12 74l-300 -474q28 -15 81 -15q45 0 78 15.5t57.5 47t42 80.5t32.5 117z" />
<glyph unicode="&#x1ff;" horiz-adv-x="479" d="M38 0zM396 715q19 9 25 -7l13 -35q3 -8 -0.5 -12.5t-17.5 -9.5l-186 -66q-16 -6 -21 7l-8 19q-6 15 8 21zM195 -9q-18 0 -34 2t-30 5l-34 -63q-7 -16 -20 -12l-17 4q-13 4 -5 19l36 68q-53 33 -53 117q0 25 5 62t11 69q13 64 29 109t42 73.5t64.5 41.5t95.5 13 q38 0 65 -7l34 63q7 16 20 12l18 -4q12 -4 5 -19l-37 -68q52 -33 52 -117q0 -25 -5 -62t-11 -69q-13 -64 -29 -109t-42 -73.5t-64.5 -41.5t-95.5 -13zM104 133q0 -43 18 -62l199 368q-20 5 -45 5q-42 0 -68.5 -14t-44 -41t-28 -66t-19.5 -89q-5 -27 -8.5 -54t-3.5 -47z M204 46q42 0 68.5 14t44 41t28 66t19.5 89q5 27 8.5 54t3.5 47q0 39 -18 60l-199 -367q17 -4 45 -4z" />
<glyph unicode="&#x218;" horiz-adv-x="488" d="M6 0zM187 -9q-50 0 -89.5 8t-76.5 23q-15 5 -9 22l8 26q6 17 23 10q31 -14 68.5 -22.5t71.5 -8.5q60 0 101 21t58 76q5 17 9 33.5t4 29.5q0 35 -18.5 52.5t-63.5 29.5l-77 21q-62 17 -85.5 48.5t-23.5 79.5q0 18 5.5 42t13.5 49q9 28 24.5 51t39.5 39.5t59 25.5t84 9 q44 0 80 -6t68 -17q13 -5 7 -20l-10 -28q-6 -14 -23 -8q-35 11 -65.5 15.5t-62.5 4.5q-62 0 -93 -21.5t-43 -63.5q-6 -22 -9.5 -36.5t-3.5 -31.5q0 -26 13.5 -42.5t53.5 -27.5l91 -25q60 -17 85.5 -45t25.5 -79q0 -18 -4.5 -40.5t-12.5 -51.5q-21 -74 -76 -108t-147 -34z M211 -69q29 0 29 -25q0 -6 -1.5 -16.5t-3.5 -18.5q-7 -35 -28 -65t-59 -61q-5 -4 -9.5 -5.5t-8.5 2.5l-11 12q-3 4 -4 6.5t4 7.5q11 10 24.5 24t21.5 27q11 15 -3 23q-17 8 -17 25q0 3 1 10t4 21q7 33 37 33h24z" />
<glyph unicode="&#x219;" horiz-adv-x="404" d="M3 0zM153 -9q-31 0 -66.5 7t-69.5 21q-14 5 -9 19l9 28q5 14 20 7q64 -26 120 -26q40 0 68 11t42 40q7 14 10.5 28.5t3.5 33.5q0 21 -13.5 33t-47.5 23l-62 19q-92 28 -92 100q0 17 2.5 31t7.5 31q17 55 56.5 78.5t113.5 23.5q61 0 117 -19q16 -6 12 -18l-9 -29 q-5 -14 -21 -8q-24 9 -51 13.5t-52 4.5q-49 0 -70.5 -14t-32.5 -42q-5 -14 -7 -25t-2 -20q0 -18 10.5 -30.5t39.5 -21.5l66 -20q27 -8 45.5 -17t30 -21t17 -28.5t5.5 -39.5q0 -15 -4.5 -37.5t-11.5 -39.5q-23 -54 -67 -75t-108 -21zM174 -69q29 0 29 -25q0 -6 -1.5 -16.5 t-3.5 -18.5q-7 -35 -28 -65t-59 -61q-5 -4 -9.5 -5.5t-8.5 2.5l-11 12q-3 4 -4 6.5t4 7.5q11 10 24.5 24t21.5 27q11 15 -3 23q-17 8 -17 25q0 3 1 10t4 21q7 33 37 33h24z" />
<glyph unicode="&#x21a;" horiz-adv-x="465" d="M74 0zM88 588q-9 0 -11.5 4t-0.5 11l6 31q2 10 7.5 11.5t10.5 1.5h409q9 0 11.5 -3.5t0.5 -11.5l-6 -29q-2 -7 -5.5 -11t-12.5 -4h-170l-111 -571q-3 -17 -18 -17h-39q-15 0 -12 17l111 571h-170zM179 -69q29 0 29 -25q0 -6 -1.5 -16.5t-3.5 -18.5q-7 -35 -28 -65 t-59 -61q-5 -4 -9.5 -5.5t-8.5 2.5l-11 12q-3 4 -4 6.5t4 7.5q11 10 24.5 24t21.5 27q11 15 -3 23q-17 8 -17 25q0 3 1 10t4 21q7 33 37 33h24z" />
<glyph unicode="&#x21b;" horiz-adv-x="310" d="M49 0zM303 490q9 0 8 -10l-7 -37q-2 -10 -12 -10h-107l-54 -289q-6 -31 -5.5 -49t11.5 -29q8 -8 21.5 -11t40.5 -3h42q5 0 8.5 -1.5t1.5 -9.5l-6 -30q-2 -11 -13 -11h-47q-33 0 -57.5 5.5t-39.5 18.5q-27 22 -27 68q0 11 2 25t4 27l53 289h-61q-10 0 -8 11l5 24 q3 12 13 13l62 9l22 113q2 12 14 12h41q12 0 10 -12l-22 -113h107zM148 -69q29 0 29 -25q0 -6 -1.5 -16.5t-3.5 -18.5q-7 -35 -28 -65t-59 -61q-5 -4 -9.5 -5.5t-8.5 2.5l-11 12q-3 4 -4 6.5t4 7.5q11 10 24.5 24t21.5 27q11 15 -3 23q-17 8 -17 25q0 3 1 10t4 21 q7 33 37 33h24z" />
<glyph unicode="&#x2c6;" horiz-adv-x="376" d="M295 738q5 0 8.5 -1.5t7.5 -6.5l84 -119q8 -11 -4 -20l-20 -15q-14 -8 -22 2l-75 92h-5l-112 -94q-11 -10 -22 -2l-23 19q-11 7 3 19l129 118q5 5 10 6.5t10 1.5h31z" />
<glyph unicode="&#x2c7;" horiz-adv-x="376" d="M234 571q-5 0 -8.5 1.5t-7.5 6.5l-84 119q-8 11 4 20l20 15q14 8 22 -2l75 -92h5l112 94q11 10 22 2l23 -19q11 -7 -3 -19l-129 -118q-5 -5 -10 -6.5t-10 -1.5h-31z" />
<glyph unicode="&#x2d8;" horiz-adv-x="376" d="M252 575q-54 0 -88.5 26t-39.5 81q0 8 2 13.5t10 7.5l30 8q16 5 18 -11q4 -38 23 -54t51 -16q30 0 55 15.5t49 57.5q7 12 20 8l26 -8q8 -2 8.5 -6.5t-2.5 -11.5q-25 -56 -66.5 -83t-95.5 -27z" />
<glyph unicode="&#x2d9;" horiz-adv-x="204" d="M115 633q0 29 19.5 51.5t51.5 22.5q24 0 37.5 -13.5t13.5 -37.5q0 -15 -6.5 -27.5t-16.5 -21.5t-23.5 -14.5t-26.5 -5.5q-20 0 -34.5 13t-14.5 33z" />
<glyph unicode="&#x2da;" horiz-adv-x="266" d="M114 633q0 23 8.5 42.5t23.5 33.5t34.5 21.5t42.5 7.5q35 0 56 -21t21 -53q0 -49 -31.5 -78.5t-76.5 -29.5q-36 0 -57 21t-21 56zM215 691q-23 0 -38 -15.5t-15 -38.5q0 -15 9.5 -24.5t26.5 -9.5q23 0 38.5 15.5t15.5 36.5q0 16 -10 26t-27 10z" />
<glyph unicode="&#x2db;" horiz-adv-x="269" d="M124 6q6 0 7.5 -2.5t-1.5 -4.5q-34 -23 -60.5 -51t-26.5 -63q0 -29 37 -29q13 0 26 3t24 8q11 6 13 -5v-28q1 -6 -1 -9t-10 -6q-17 -7 -35.5 -11t-41.5 -4q-38 0 -60.5 15t-22.5 49q0 43 29 77t77 57q8 4 16 4h30z" />
<glyph unicode="&#x2dc;" horiz-adv-x="407" d="M115 609q-10 7 -1 20q28 39 56.5 58t55.5 19q19 0 30.5 -4.5t25.5 -15.5l25 -20q11 -9 17.5 -12.5t15.5 -3.5q12 0 26 11t35 34q10 12 20 3l17 -14q10 -7 0 -20q-27 -38 -56 -56.5t-58 -18.5q-32 0 -54 19l-25 20q-8 8 -14.5 12t-14.5 4q-15 0 -28 -9t-35 -35 q-10 -12 -22 -3z" />
<glyph unicode="&#x2dd;" horiz-adv-x="488" d="M278 736q16 12 27 -4l17 -23q10 -15 -7 -26l-170 -102q-8 -5 -12.5 -4t-9.5 8l-13 17q-8 12 4 21zM481 736q16 12 27 -4l17 -23q10 -15 -7 -26l-170 -102q-8 -5 -12.5 -4t-9.5 8l-13 17q-8 12 4 21z" />
<glyph unicode="&#x326;" horiz-adv-x="239" d="M71 -69q29 0 29 -25q0 -6 -1.5 -16.5t-3.5 -18.5q-7 -35 -28 -65t-59 -61q-5 -4 -9.5 -5.5t-8.5 2.5l-11 12q-3 4 -4 6.5t4 7.5q11 10 24.5 24t21.5 27q11 15 -3 23q-17 8 -17 25q0 3 1 10t4 21q7 33 37 33h24z" />
<glyph unicode="&#x394;" horiz-adv-x="612" d="M439 64q-8 60 -16.5 126.5t-18.5 131.5t-19.5 125.5t-18.5 109.5h-5q-28 -48 -62 -108.5t-69.5 -126.5t-70 -132.5t-64.5 -125.5h344zM26 0q-27 0 -20 25l5 21q3 14 12 30t20 38q32 61 65 122.5t68 124.5t72.5 130t79.5 139q10 17 26 17h50q17 0 20 -17 q27 -140 48.5 -271t38.5 -245q4 -28 6 -45.5t-1 -31.5l-4 -17q-3 -12 -9.5 -16t-20.5 -4h-456z" />
<glyph unicode="&#x3a9;" horiz-adv-x="661" d="M391 656q108 0 161 -46.5t53 -153.5q0 -11 -0.5 -23t-3 -29t-6.5 -40.5t-10 -56.5q-16 -81 -51.5 -140t-104.5 -105v-3h110q7 0 8.5 -2.5t0.5 -10.5l-6 -31q-3 -15 -14 -15h-198q-18 0 -15 15l4 22q2 8 5.5 12t14.5 12q38 27 67 54.5t50 58.5t35 66.5t23 79.5 q10 48 13 80.5t3 53.5q0 75 -35 109t-112 34q-44 0 -78 -13t-60 -42t-44 -77t-29 -118q-8 -44 -11.5 -68.5t-3.5 -43.5q0 -30 4.5 -53.5t14.5 -44t26 -39t39 -37.5q7 -6 9.5 -11t0.5 -15l-4 -20q-3 -15 -20 -15h-196q-13 0 -10 13l7 35q3 11 14 11h115v3q-34 29 -54.5 71.5 t-20.5 90.5q0 29 5.5 62.5t13.5 84.5q12 76 35.5 130.5t59 88.5t84 50t111.5 16z" />
<glyph unicode="&#x3bc;" horiz-adv-x="555" d="M402 98q-5 -29 0.5 -40t21.5 -11q9 0 18 1.5t15 3.5q7 2 11 1t5 -9l2 -22q1 -7 -2 -11t-12 -8q-14 -6 -27.5 -9t-32.5 -3q-62 0 -65 58h-2q-49 -58 -146 -58q-38 0 -64 11.5t-37 30.5l-37 -194q-3 -16 -18 -16h-37q-13 0 -10 14l123 639q3 14 16 14h37q15 0 12 -14 l-60 -310q-14 -69 9 -96q21 -26 74 -26q62 0 102 35t53 98l60 299q3 14 17 14h36q15 0 12 -14z" />
<glyph unicode="&#x3c0;" horiz-adv-x="597" d="M138 13q-3 -13 -19 -13h-31q-18 0 -15 13l80 418h-79q-18 0 -15 16l6 27q4 16 21 16h478q17 0 13 -17l-6 -26q-2 -10 -7.5 -13t-16.5 -3h-79l-58 -301q-3 -18 -5 -31t-2 -22q0 -18 7 -24t23 -6q13 0 22.5 1.5t19.5 3.5q14 3 15 -8l3 -26q1 -6 -2 -9.5t-12 -6.5 q-30 -11 -69 -11q-35 0 -54.5 16t-19.5 53q0 16 2 31t5 31l59 309h-184z" />
<glyph unicode="&#x1e80;" horiz-adv-x="778" d="M81 0zM846 628q-54 -141 -116.5 -286t-135.5 -307q-9 -20 -20 -27.5t-27 -7.5h-48q-16 0 -25.5 7.5t-11.5 27.5q-10 124 -14.5 246t-2.5 258h-8q-50 -122 -100.5 -245.5t-112.5 -258.5q-9 -20 -20.5 -27.5t-28.5 -7.5h-44q-15 0 -24.5 7.5t-11.5 27.5q-7 107 -10.5 256.5 t-2.5 338.5q0 10 4.5 13.5t16.5 3.5h29q12 0 16.5 -3t4.5 -14q-2 -141 -1 -282.5t9 -281.5h11q54 127 107.5 253.5t109.5 263.5q8 18 14.5 25t25.5 7h45q19 0 27 -7t8 -25q0 -129 4 -257.5t13 -259.5h11q66 144 126.5 290.5t109.5 274.5q7 16 24 16h38q19 0 11 -19zM546 745 q13 -6 7 -18l-10 -23q-4 -11 -20 -5l-191 68q-10 4 -12 9.5t1 14.5l11 31q6 16 25 7z" />
<glyph unicode="&#x1e81;" horiz-adv-x="650" d="M51 0zM383 466q14 0 19.5 -6.5t6.5 -23.5q3 -94 7 -186t10 -199h5q45 95 87.5 196.5t87.5 225.5q5 17 22 17h35q17 0 11 -17q-44 -104 -86.5 -212t-97.5 -220q-11 -25 -21.5 -33t-27.5 -8h-34q-18 0 -27 8.5t-11 32.5q-8 90 -11.5 180t-5.5 185h-5q-36 -93 -76.5 -183 t-82.5 -182q-11 -24 -22.5 -32.5t-29.5 -8.5h-34q-17 0 -25 8t-10 33q-4 51 -7 102t-5 104t-3 108.5t-1 117.5q0 17 17 17h33q16 0 16 -17q-5 -106 -2 -210t11 -212h5q43 89 82.5 183.5t87.5 201.5q14 30 37 30h45zM449 631q13 -6 7 -18l-10 -23q-4 -11 -20 -5l-191 68 q-10 4 -12 9.5t1 14.5l11 31q6 16 25 7z" />
<glyph unicode="&#x1e82;" horiz-adv-x="778" d="M81 0zM846 628q-54 -141 -116.5 -286t-135.5 -307q-9 -20 -20 -27.5t-27 -7.5h-48q-16 0 -25.5 7.5t-11.5 27.5q-10 124 -14.5 246t-2.5 258h-8q-50 -122 -100.5 -245.5t-112.5 -258.5q-9 -20 -20.5 -27.5t-28.5 -7.5h-44q-15 0 -24.5 7.5t-11.5 27.5q-7 107 -10.5 256.5 t-2.5 338.5q0 10 4.5 13.5t16.5 3.5h29q12 0 16.5 -3t4.5 -14q-2 -141 -1 -282.5t9 -281.5h11q54 127 107.5 253.5t109.5 263.5q8 18 14.5 25t25.5 7h45q19 0 27 -7t8 -25q0 -129 4 -257.5t13 -259.5h11q66 144 126.5 290.5t109.5 274.5q7 16 24 16h38q19 0 11 -19zM582 829 q19 9 25 -7l13 -35q3 -8 -0.5 -12.5t-17.5 -9.5l-186 -66q-16 -6 -21 7l-8 19q-6 15 8 21z" />
<glyph unicode="&#x1e83;" horiz-adv-x="650" d="M51 0zM383 466q14 0 19.5 -6.5t6.5 -23.5q3 -94 7 -186t10 -199h5q45 95 87.5 196.5t87.5 225.5q5 17 22 17h35q17 0 11 -17q-44 -104 -86.5 -212t-97.5 -220q-11 -25 -21.5 -33t-27.5 -8h-34q-18 0 -27 8.5t-11 32.5q-8 90 -11.5 180t-5.5 185h-5q-36 -93 -76.5 -183 t-82.5 -182q-11 -24 -22.5 -32.5t-29.5 -8.5h-34q-17 0 -25 8t-10 33q-4 51 -7 102t-5 104t-3 108.5t-1 117.5q0 17 17 17h33q16 0 16 -17q-5 -106 -2 -210t11 -212h5q43 89 82.5 183.5t87.5 201.5q14 30 37 30h45zM500 715q19 9 25 -7l13 -35q3 -8 -0.5 -12.5t-17.5 -9.5 l-186 -66q-16 -6 -21 7l-8 19q-6 15 8 21z" />
<glyph unicode="&#x1e84;" horiz-adv-x="778" d="M81 0zM846 628q-54 -141 -116.5 -286t-135.5 -307q-9 -20 -20 -27.5t-27 -7.5h-48q-16 0 -25.5 7.5t-11.5 27.5q-10 124 -14.5 246t-2.5 258h-8q-50 -122 -100.5 -245.5t-112.5 -258.5q-9 -20 -20.5 -27.5t-28.5 -7.5h-44q-15 0 -24.5 7.5t-11.5 27.5q-7 107 -10.5 256.5 t-2.5 338.5q0 10 4.5 13.5t16.5 3.5h29q12 0 16.5 -3t4.5 -14q-2 -141 -1 -282.5t9 -281.5h11q54 127 107.5 253.5t109.5 263.5q8 18 14.5 25t25.5 7h45q19 0 27 -7t8 -25q0 -129 4 -257.5t13 -259.5h11q66 144 126.5 290.5t109.5 274.5q7 16 24 16h38q19 0 11 -19zM414 823 q37 0 37 -29v-7.5t-5 -25.5q-4 -20 -18 -29.5t-34 -9.5h-10q-16 0 -25.5 7t-9.5 21q0 2 0.5 8t4.5 26q4 19 17.5 29t32.5 10h10zM576 823q37 0 37 -29q0 -2 -1 -10.5t-4 -22.5q-4 -20 -18 -29.5t-34 -9.5h-10q-16 0 -25.5 7t-9.5 21q0 4 1.5 12t3.5 22q3 19 16.5 29t33.5 10 h10z" />
<glyph unicode="&#x1e85;" horiz-adv-x="650" d="M51 0zM383 466q14 0 19.5 -6.5t6.5 -23.5q3 -94 7 -186t10 -199h5q45 95 87.5 196.5t87.5 225.5q5 17 22 17h35q17 0 11 -17q-44 -104 -86.5 -212t-97.5 -220q-11 -25 -21.5 -33t-27.5 -8h-34q-18 0 -27 8.5t-11 32.5q-8 90 -11.5 180t-5.5 185h-5q-36 -93 -76.5 -183 t-82.5 -182q-11 -24 -22.5 -32.5t-29.5 -8.5h-34q-17 0 -25 8t-10 33q-4 51 -7 102t-5 104t-3 108.5t-1 117.5q0 17 17 17h33q16 0 16 -17q-5 -106 -2 -210t11 -212h5q43 89 82.5 183.5t87.5 201.5q14 30 37 30h45zM321 701q37 0 37 -29v-7.5t-5 -25.5q-4 -20 -18 -29.5 t-34 -9.5h-10q-16 0 -25.5 7t-9.5 21q0 2 0.5 8t4.5 26q4 19 17.5 29t32.5 10h10zM483 701q37 0 37 -29q0 -2 -1 -10.5t-4 -22.5q-4 -20 -18 -29.5t-34 -9.5h-10q-16 0 -25.5 7t-9.5 21q0 4 1.5 12t3.5 22q3 19 16.5 29t33.5 10h10z" />
<glyph unicode="&#x1ef2;" horiz-adv-x="453" d="M81 0zM180 220q-39 100 -64 201.5t-34 213.5q-1 12 13 12h44q14 0 15 -10q9 -98 24.5 -181.5t43.5 -164.5h7q59 85 111 168.5t99 177.5q5 10 18 10h44q6 0 9.5 -2.5t0.5 -9.5q-26 -55 -54.5 -106t-60 -101.5t-68 -102t-79.5 -107.5l-39 -201q-3 -17 -18 -17h-39 q-15 0 -12 17zM387 745q13 -6 7 -18l-10 -23q-4 -11 -20 -5l-191 68q-10 4 -12 9.5t1 14.5l11 31q6 16 25 7z" />
<glyph unicode="&#x1ef3;" horiz-adv-x="413" d="M51 0zM56 -140q23 39 44.5 75.5t41.5 71.5q-20 3 -33.5 17.5t-18.5 45.5q-13 82 -22 179.5t-16 228.5q0 12 13 12h42q12 0 12 -11q5 -128 13 -225.5t18 -172.5q3 -23 20 -24q27 50 52 100t49.5 101.5t48.5 107t50 116.5q3 8 13 8h45q7 0 8.5 -4t-0.5 -9 q-40 -94 -77 -174.5t-77 -160.5q-38 -76 -78.5 -150t-87.5 -155q-5 -9 -10.5 -12t-14.5 1l-31 12q-8 3 -8.5 9t4.5 13zM333 631q13 -6 7 -18l-10 -23q-4 -11 -20 -5l-191 68q-10 4 -12 9.5t1 14.5l11 31q6 16 25 7z" />
<glyph unicode="&#x2013;" horiz-adv-x="504" d="M492 294q9 0 11.5 -4t0.5 -11l-7 -39q-2 -10 -7.5 -11.5t-10.5 -1.5h-470q-9 0 -11.5 3.5t-0.5 11.5l7 37q2 7 5.5 11t12.5 4h470z" />
<glyph unicode="&#x2014;" horiz-adv-x="1004" d="M992 294q9 0 11.5 -4t0.5 -11l-7 -39q-2 -10 -7.5 -11.5t-10.5 -1.5h-970q-9 0 -11.5 3.5t-0.5 11.5l7 37q2 7 5.5 11t12.5 4h970z" />
<glyph unicode="&#x2018;" horiz-adv-x="171" d="M58 461zM99.0059 461.006q-20.999 0 -30.998 7.49902q-10 7.5 -10 27.499q0 14.999 4 34.998q4 16.998 10.499 34.4971q6.5 17.499 17.499 37.498q10.999 20.999 27.498 41.9971q16.499 20.999 32.498 35.998q9 9 17.999 2l15.999 -10.999q9 -8 -2 -18.999 q-14.999 -14.999 -26.998 -32.998q-13.999 -19.999 -22.998 -38.998q-7 -13.999 1.99902 -17.998l13.999 -8q16 -8.99902 16 -25.998q0 -3 -1 -11.5q-1 -8.49902 -4 -22.498q-4 -17.999 -14.499 -25.999q-10.5 -7.99902 -31.498 -7.99902h-13.999z" />
<glyph unicode="&#x2019;" horiz-adv-x="171" d="M79 459zM173 688q21 0 31 -7.5t10 -27.5q0 -15 -4 -35q-4 -17 -10.5 -34.5t-17.5 -37.5q-11 -21 -27.5 -42t-32.5 -36q-9 -9 -18 -2l-16 11q-9 8 2 19q15 15 27 33q14 20 23 39q7 14 -2 18l-14 8q-16 9 -16 26q0 3 1 11.5t4 22.5q4 18 14.5 26t31.5 8h14z" />
<glyph unicode="&#x201a;" horiz-adv-x="129" d="M0 0zM88 94q21 0 31 -7.5t10 -27.5q0 -15 -4 -35q-4 -17 -10.5 -34.5t-17.5 -37.5q-11 -21 -27.5 -42t-32.5 -36q-9 -9 -18 -2l-16 11q-9 8 2 19q15 15 27 33q14 20 23 39q7 14 -2 18l-14 8q-16 9 -16 26q0 3 1 11.5t4 22.5q4 18 14.5 26t31.5 8h14z" />
<glyph unicode="&#x201c;" horiz-adv-x="328" d="M58 461zM99.0059 461.006q-20.999 0 -30.998 7.49902q-10 7.5 -10 27.499q0 14.999 4 34.998q4 16.998 10.499 34.4971q6.5 17.499 17.499 37.498q10.999 20.999 27.498 41.9971q16.499 20.999 32.498 35.998q9 9 17.999 2l15.999 -10.999q9 -8 -2 -18.999 q-14.999 -14.999 -26.998 -32.998q-13.999 -19.999 -22.998 -38.998q-7 -13.999 1.99902 -17.998l13.999 -8q16 -8.99902 16 -25.998q0 -3 -1 -11.5q-1 -8.49902 -4 -22.498q-4 -17.999 -14.499 -25.999q-10.5 -7.99902 -31.498 -7.99902h-13.999zM256.006 461.006 q-20.999 0 -30.998 7.49902q-10 7.5 -10 27.499q0 14.999 4 34.998q4 16.998 10.499 34.4971q6.5 17.499 17.499 37.498q10.999 20.999 27.498 41.9971q16.499 20.999 32.498 35.998q9 9 17.999 2l15.999 -10.999q9 -8 -2 -18.999q-14.999 -14.999 -26.998 -32.998 q-13.999 -19.999 -22.998 -38.998q-7 -13.999 1.99902 -17.998l13.999 -8q16 -8.99902 16 -25.998q0 -3 -1 -11.5q-1 -8.49902 -4 -22.498q-4 -17.999 -14.499 -25.999q-10.5 -7.99902 -31.498 -7.99902h-13.999z" />
<glyph unicode="&#x201d;" horiz-adv-x="328" d="M79 459zM173 688q21 0 31 -7.5t10 -27.5q0 -15 -4 -35q-4 -17 -10.5 -34.5t-17.5 -37.5q-11 -21 -27.5 -42t-32.5 -36q-9 -9 -18 -2l-16 11q-9 8 2 19q15 15 27 33q14 20 23 39q7 14 -2 18l-14 8q-16 9 -16 26q0 3 1 11.5t4 22.5q4 18 14.5 26t31.5 8h14zM330 688 q21 0 31 -7.5t10 -27.5q0 -15 -4 -35q-4 -17 -10.5 -34.5t-17.5 -37.5q-11 -21 -27.5 -42t-32.5 -36q-9 -9 -18 -2l-16 11q-9 8 2 19q15 15 27 33q14 20 23 39q7 14 -2 18l-14 8q-16 9 -16 26q0 3 1 11.5t4 22.5q4 18 14.5 26t31.5 8h14z" />
<glyph unicode="&#x201e;" horiz-adv-x="286" d="M0 0zM88 94q21 0 31 -7.5t10 -27.5q0 -15 -4 -35q-4 -17 -10.5 -34.5t-17.5 -37.5q-11 -21 -27.5 -42t-32.5 -36q-9 -9 -18 -2l-16 11q-9 8 2 19q15 15 27 33q14 20 23 39q7 14 -2 18l-14 8q-16 9 -16 26q0 3 1 11.5t4 22.5q4 18 14.5 26t31.5 8h14zM244 94q21 0 31 -7.5 t10 -27.5q0 -15 -4 -35q-4 -17 -10.5 -34.5t-17.5 -37.5q-11 -21 -27.5 -42t-32.5 -36q-9 -9 -18 -2l-16 11q-9 8 2 19q15 15 27 33q14 20 23 39q7 14 -2 18l-14 8q-16 9 -16 26q0 3 1 11.5t4 22.5q4 18 14.5 26t31.5 8h14z" />
<glyph unicode="&#x2020;" horiz-adv-x="341" d="M163 417l-112 -2q-16 0 -13 15l8 37q2 7 5 11t12 4l111 -3l32 175q3 17 19 17h44q10 0 11 -6t0 -11l-36 -175l112 3q16 0 13 -15l-8 -39q-2 -10 -7 -11.5t-10 -1.5l-113 2l-82 -400q-3 -17 -18 -17h-29q-15 0 -12 17z" />
<glyph unicode="&#x2021;" horiz-adv-x="343" d="M135 251l-102 -2q-9 0 -11.5 3.5t-0.5 11.5l8 37q3 15 17 15l100 -2l19 103l-112 -2q-16 0 -13 15l8 37q3 15 17 15l111 -3l32 175q3 17 19 17h42q16 0 13 -17l-36 -175l112 3q16 0 13 -15l-8 -39q-3 -13 -17 -13l-113 2l-21 -104l101 3q16 0 13 -15l-8 -39 q-2 -8 -5.5 -10.5t-12.5 -2.5l-101 2l-48 -234q-3 -17 -18 -17h-29q-15 0 -12 17z" />
<glyph unicode="&#x2022;" horiz-adv-x="365" d="M60 235q0 33 11 59.5t30.5 46t46 30t56.5 10.5q45 0 72 -28t27 -71q0 -33 -11.5 -59t-31 -44t-46 -27.5t-56.5 -9.5q-45 0 -71.5 26t-26.5 67z" />
<glyph unicode="&#x2026;" horiz-adv-x="580" d="M0 0zM18 94q37 0 37 -28q0 -2 -1 -11.5t-4 -23.5q-8 -39 -51 -39h-10q-17 0 -26.5 7t-9.5 18q0 8 1 16t4 22q4 20 17 29.5t33 9.5h10zM209 94q37 0 37 -28q0 -2 -1 -11.5t-4 -23.5q-8 -39 -51 -39h-10q-17 0 -26.5 7t-9.5 18q0 8 1 16t4 22q4 20 17 29.5t33 9.5h10z M401 94q37 0 37 -28q0 -2 -1 -11.5t-4 -23.5q-8 -39 -51 -39h-10q-17 0 -26.5 7t-9.5 18q0 8 1 16t4 22q4 20 17 29.5t33 9.5h10z" />
<glyph unicode="&#x2030;" horiz-adv-x="1098" d="M1023 163q-10 -54 -24.5 -87t-40.5 -55q-17 -14 -40 -22t-56 -8q-56 0 -80 30q-11 14 -15.5 31.5t-4.5 38.5q0 17 2.5 37.5t7.5 45.5q11 58 27 90.5t39 52.5q17 14 39 21.5t55 7.5q30 0 49.5 -8t31.5 -22q11 -14 15.5 -31.5t4.5 -35.5q0 -20 -3 -42.5t-7 -43.5zM962 164 q5 27 7 44.5t2 34.5q0 29 -12 40.5t-37 11.5q-17 0 -30.5 -6t-24.5 -20t-19 -37.5t-15 -58.5q-5 -23 -7.5 -43t-2.5 -33q0 -32 12 -43.5t37 -11.5q17 0 30.5 5.5t24.5 19.5t19.5 37.5t15.5 59.5zM598 644q8 12 24 12h35q8 0 8.5 -5t-4.5 -12l-476 -636q-5 -8 -10.5 -10 t-13.5 -2h-35q-17 0 -6 15zM325 473q-10 -54 -24.5 -87t-40.5 -55q-17 -14 -40 -22t-56 -8q-56 0 -80 30q-11 14 -15.5 31.5t-4.5 38.5q0 17 2.5 37.5t7.5 45.5q11 58 27 90.5t39 52.5q17 14 39 21.5t55 7.5q30 0 49.5 -8t31.5 -22q11 -14 15.5 -31.5t4.5 -35.5 q0 -20 -3 -42.5t-7 -43.5zM264 474q5 27 7 44.5t2 34.5q0 29 -12 40.5t-37 11.5q-17 0 -30.5 -6t-24.5 -20t-19 -37.5t-15 -58.5q-5 -23 -7.5 -43t-2.5 -33q0 -32 12 -43.5t37 -11.5q17 0 30.5 5.5t24.5 19.5t19.5 37.5t15.5 59.5zM709 163q-10 -54 -24.5 -87t-40.5 -55 q-17 -14 -40 -22t-56 -8q-56 0 -80 30q-11 14 -15.5 31.5t-4.5 38.5q0 17 2.5 37.5t7.5 45.5q11 58 27 90.5t39 52.5q17 14 39 21.5t55 7.5q30 0 49.5 -8t31.5 -22q11 -14 15.5 -31.5t4.5 -35.5q0 -20 -3 -42.5t-7 -43.5zM648 164q5 27 7 44.5t2 34.5q0 29 -12 40.5 t-37 11.5q-17 0 -30.5 -6t-24.5 -20t-19 -37.5t-15 -58.5q-5 -23 -7.5 -43t-2.5 -33q0 -32 12 -43.5t37 -11.5q17 0 30.5 5.5t24.5 19.5t19.5 37.5t15.5 59.5z" />
<glyph unicode="&#x2039;" horiz-adv-x="289" d="M211 124q11 -12 1 -20l-21 -17q-9 -8 -24 5l-118 111q-9 9 -9 16q0 6 5 23q2 7 5.5 11t11.5 10l162 115q7 5 11.5 5t9.5 -5l18 -21q11 -11 -2 -20l-142 -112z" />
<glyph unicode="&#x203a;" horiz-adv-x="289" d="M61 340q-11 12 -1 20l21 17q9 8 24 -5l118 -111q9 -9 9 -16q0 -6 -5 -23q-2 -7 -5.5 -11t-11.5 -10l-162 -115q-7 -5 -11.5 -5t-9.5 5l-18 21q-11 11 2 20l142 112z" />
<glyph unicode="&#x2044;" horiz-adv-x="105" d="M262 644q9 12 23 12h35q8 0 9 -5t-4 -12l-474 -636q-9 -12 -22 -12h-35q-8 0 -9.5 4.5t4.5 12.5z" />
<glyph unicode="&#x20ac;" d="M98 274q3 14 5.5 31t6.5 37h-66q-9 0 -11.5 3.5t-0.5 11.5l5 26q2 7 5.5 11t12.5 4h66q7 40 16 72t19.5 57t24 44.5t30.5 34.5q30 26 71 38t95 12q42 0 82 -10t74 -28q15 -7 7 -20l-18 -29q-7 -11 -22 -3q-24 14 -59.5 22.5t-64.5 8.5q-37 0 -65 -7.5t-48 -26.5 q-26 -23 -41.5 -60.5t-28.5 -104.5h216q9 0 11.5 -4t0.5 -11l-5 -28q-2 -10 -7.5 -11.5t-10.5 -1.5h-218l-12 -68h217q9 0 11.5 -4t0.5 -11l-6 -28q-2 -10 -7 -11.5t-10 -1.5h-213q-2 -11 -2 -20.5v-17.5q0 -36 6 -60.5t21.5 -40.5t41 -23t64.5 -7q29 0 62 5.5t66 17.5 q11 4 15 1t6 -11l4 -24q3 -14 -13 -20q-15 -6 -33.5 -11t-38 -8.5t-39 -5.5t-36.5 -2q-56 0 -93.5 10.5t-61 32.5t-33.5 56t-10 81q0 20 3 47h-70q-9 0 -11.5 3.5t-0.5 11.5l5 26q2 7 5.5 11t12.5 4h67z" />
<glyph unicode="&#x2113;" horiz-adv-x="447" d="M175 284q34 22 67.5 47.5t60.5 55.5t43.5 65.5t16.5 77.5q0 35 -16.5 50t-37.5 15q-35 0 -59 -26.5t-38 -96.5zM151 160q-7 -34 -7 -58q0 -32 12 -44.5t35 -12.5q29 0 61.5 21.5t64.5 52.5q6 6 10 6t9 -5l13 -15q5 -6 6 -10t-4 -9q-18 -18 -38 -35t-41.5 -30.5 t-45.5 -21.5t-50 -8q-45 0 -72 23t-27 80q0 29 7 61l6 28q-16 -8 -29.5 -15t-30.5 -15q-14 -6 -18 5l-7 26q-4 13 9 19q22 10 43.5 20.5t45.5 23.5l47 246q16 87 58 124t107 37q48 0 81.5 -30t33.5 -85q0 -58 -20.5 -103t-56.5 -82.5t-85 -70.5t-106 -69z" />
<glyph unicode="&#x2116;" horiz-adv-x="890" d="M787 47q14 0 13 -13l-3 -23q-1 -5 -4.5 -8t-12.5 -3h-199q-9 0 -11.5 3t-1.5 10l3 21q2 7 5 10t12 3h199zM487 27q-3 -16 -12.5 -21.5t-26.5 -5.5h-44q-18 0 -26 5t-13 21l-160 554h-7l-110 -563q-3 -17 -19 -17h-34q-14 0 -11 17l117 603q3 16 10 21.5t27 5.5h45 q17 0 26 -5.5t14 -22.5l161 -554h7l108 563q4 17 18 17h34q15 0 12 -17zM600 266q8 42 20 69.5t31 44.5q31 27 96 27q53 0 79.5 -19t26.5 -67q0 -12 -2 -28.5t-8 -50.5q-15 -82 -51 -114q-31 -27 -96 -27q-54 0 -80 19.5t-26 67.5q0 12 2 28t8 50zM654 256 q-4 -21 -5.5 -34.5t-1.5 -24.5q0 -29 12 -40.5t41 -11.5q18 0 31.5 3.5t23.5 13.5q12 12 19 33.5t14 54.5q5 21 6.5 35.5t1.5 25.5q0 29 -12.5 40.5t-40.5 11.5q-18 0 -31.5 -3.5t-23.5 -13.5q-22 -22 -34 -90z" />
<glyph unicode="&#x2122;" horiz-adv-x="678" d="M106 601q-7 0 -6 7l7 34q1 5 4 6t5 1h211q6 0 6 -8l-7 -33q-1 -7 -9 -7h-79l-47 -246q-2 -8 -9 -8h-39q-9 0 -7 8l47 246h-77zM500 428q26 48 51 97.5t49 100.5q7 14 14 18.5t18 4.5h42q11 0 15 -5t3 -16q-6 -64 -14.5 -130.5t-19.5 -142.5q-2 -8 -8 -8h-38q-9 0 -7 8 q12 72 20 128t15 114h-3q-27 -56 -49.5 -102.5t-51.5 -98.5q-5 -11 -10 -13t-15 -2h-38q-11 0 -15 3.5t-6 11.5q-8 48 -14 97.5t-12 103.5h-3q-9 -31 -16 -58t-13.5 -55t-13.5 -59t-16 -70q-2 -8 -9 -8h-38q-8 0 -6 8q9 38 17 71.5t16 65.5t17 65.5t20 71.5q3 12 9.5 16 t17.5 4h42q11 0 15.5 -4.5t6.5 -18.5q7 -57 11.5 -103.5t11.5 -94.5h5z" />
<glyph unicode="&#x212e;" horiz-adv-x="820" d="M191 316q-5 0 -5 -5v-182q0 -10 9 -21q42 -45 100.5 -71t126.5 -26q72 0 133.5 29.5t103.5 79.5h54q-51 -58 -126.5 -93.5t-165.5 -35.5q-77 0 -144.5 26t-117.5 71t-79.5 105.5t-29.5 129.5t29.5 130t79.5 106t117.5 71t144.5 26q76 0 143 -26t117.5 -71t79.5 -106 t29 -130v-7h-599zM654 521q0 12 -10 22q-42 43 -99 68t-123 25q-68 0 -126 -25.5t-100 -70.5q-10 -8 -10 -23v-179q0 -5 5 -5h458q5 0 5 5v183z" />
<glyph unicode="&#x2190;" horiz-adv-x="596" d="M227 115q12 -13 -1 -23l-26 -21q-7 -6 -11.5 -6.5t-10.5 6.5l-138 172q-9 11 -8 18t11 15l212 177q10 8 18 -1l20 -26q5 -6 4.5 -10.5t-7.5 -9.5l-139 -115h393q9 0 11.5 -4t0.5 -11l-6 -31q-2 -8 -5.5 -11.5t-12.5 -3.5h-399z" />
<glyph unicode="&#x2191;" horiz-adv-x="596" d="M357 416l-78 -402q-3 -14 -18 -14h-32q-15 -2 -12 14l77 396l-139 -114q-7 -6 -11.5 -5.5t-9.5 6.5l-21 24q-7 9 2 18l214 174q11 8 17 8q8 0 16 -11l143 -169q5 -7 4 -11.5t-8 -9.5l-26 -22q-12 -9 -23 4z" />
<glyph unicode="&#x2192;" horiz-adv-x="596" d="M367 406q-12 13 1 23l26 21q7 6 11.5 6.5t10.5 -6.5l138 -172q9 -11 8 -18t-11 -15l-212 -177q-10 -8 -18 1l-20 26q-5 6 -4.5 10.5t7.5 9.5l139 115h-393q-9 0 -11.5 4t-0.5 11l6 31q2 8 5.5 11.5t12.5 3.5h399z" />
<glyph unicode="&#x2193;" horiz-adv-x="596" d="M233 105l78 402q3 14 18 14h32q15 0 12 -14l-77 -396l139 114q7 6 11.5 5.5t9.5 -6.5l21 -24q7 -9 -2 -18l-214 -174q-11 -8 -17 -8q-8 0 -16 11l-143 169q-5 7 -4 11.5t8 9.5l26 22q12 9 23 -4z" />
<glyph unicode="&#x2202;" horiz-adv-x="515" d="M197 642q30 14 61 21t67 7q76 0 116 -45.5t40 -145.5q0 -25 -3 -52.5t-7 -54.5t-8.5 -50t-7.5 -39q-15 -68 -37.5 -121.5t-54.5 -91.5t-74 -58t-95 -20q-77 0 -118 44t-41 120q0 24 4 51t11 52q43 156 205 156q50 0 89 -16.5t59 -38.5q12 66 12 115q0 77 -25.5 107.5 t-82.5 30.5q-23 0 -48 -7t-46 -17q-15 -7 -18 5l-8 32q-2 11 10 16zM257 355q-59 0 -92 -26.5t-50 -89.5q-5 -20 -8 -41.5t-3 -35.5q0 -54 22 -82t75 -28q39 0 68.5 16t52 47.5t38.5 76.5t29 104q-10 12 -24.5 23t-32 19t-37 12.5t-38.5 4.5z" />
<glyph unicode="&#x220f;" horiz-adv-x="616" d="M477 588h-208l-129 -665q-3 -19 -23 -19h-31q-20 0 -16 19l129 665h-84q-18 0 -15 16l6 27q4 16 21 16h515q10 0 12 -4t0 -13l-6 -26q-3 -10 -8 -13t-16 -3h-77l-129 -665q-3 -19 -22 -19h-31q-21 0 -17 19z" />
<glyph unicode="&#x2211;" horiz-adv-x="575" d="M135 573q-5 7 -7 13.5t0 18.5l5 25q3 17 25 17h411q13 0 10 -13l-7 -33q-1 -13 -15 -13h-342l184 -264q5 -7 7 -12t2 -11q0 -7 -3 -19q-2 -11 -7.5 -18t-13.5 -15l-305 -286h362q12 0 11 -13l-7 -33q-3 -13 -15 -13h-432q-21 0 -18 17l6 29q2 8 4.5 13.5t9.5 11.5 l296 280q14 14 23 21.5t9 13.5t-6 14t-15 21z" />
<glyph unicode="&#x2212;" d="M467 290q14 0 11 -15l-5 -31q-3 -13 -18 -13h-411q-15 0 -12 15l5 29q3 15 19 15h411z" />
<glyph unicode="&#x221a;" horiz-adv-x="577" d="M64 478q2 8 6 10t12 2h103q17 0 18 -15l45 -386h2l282 552q5 9 9.5 12t13.5 3h40q20 0 10 -18l-330 -624q-7 -14 -22 -14h-43q-16 0 -17 13l-59 418h-62q-17 0 -14 13z" />
<glyph unicode="&#x221e;" horiz-adv-x="832" d="M414 268q-53 -53 -103.5 -79t-109.5 -26q-60 0 -97.5 33t-37.5 93q0 38 13 72t37.5 59.5t60.5 40.5t82 15q62 0 102 -31t71 -83q51 52 102.5 83t114.5 31q66 0 99.5 -32t33.5 -89q0 -45 -15 -80.5t-41 -60t-62.5 -38t-78.5 -13.5q-59 0 -99 26t-72 79zM465 315 q27 -52 58.5 -73t69.5 -21q51 0 85 34.5t34 91.5q0 36 -21.5 52.5t-59.5 16.5q-40 0 -80 -25t-86 -76zM381 315q-26 51 -56 76t-70 25q-24 0 -45.5 -8.5t-38 -24t-26 -38t-9.5 -49.5q0 -37 21.5 -56t57.5 -19q38 0 78.5 21t87.5 73z" />
<glyph unicode="&#x222b;" horiz-adv-x="342" d="M195 102q-3 -50 -13.5 -88.5t-31 -65t-53.5 -40t-82 -13.5q-17 0 -32.5 3t-27.5 8q-12 4 -6 18l9 22q5 12 16 9q9 -2 19 -4t21 -2q31 0 52.5 9t34.5 27t19 45t8 63l19 356q3 52 13.5 91t31.5 65t54 38.5t81 12.5q17 0 32.5 -2.5t27.5 -7.5t6 -18l-9 -22q-5 -12 -16 -9 q-20 5 -40 5q-32 0 -53 -9t-34 -27t-19 -45t-8 -63z" />
<glyph unicode="&#x2248;" d="M222 353q-30 17 -58 17q-22 0 -43 -13.5t-47 -46.5q-12 -15 -24 -8l-21 13q-11 7 0 20q40 51 76 72.5t74 21.5q26 0 45 -6t39 -17l55 -32q30 -17 58 -17q46 0 92 62q9 13 21 6l21 -12q6 -4 6 -10t-5 -12q-39 -54 -77 -73.5t-73 -19.5q-28 0 -46 6t-38 17zM183 152 q-30 17 -58 17q-22 0 -43 -13.5t-47 -46.5q-12 -15 -24 -8l-21 13q-11 7 0 20q40 51 76 72.5t74 21.5q26 0 45 -5.5t39 -17.5l55 -32q30 -17 58 -17q46 0 92 62q9 13 21 6l21 -12q6 -4 6 -10t-5 -12q-39 -54 -77 -73.5t-73 -19.5q-28 0 -46 6t-38 17z" />
<glyph unicode="&#x2260;" d="M303 388l70 108q11 17 28 17h34q18 0 8 -17l-70 -108h114q9 0 11.5 -3.5t0.5 -11.5l-7 -37q-2 -7 -5.5 -10t-12.5 -3h-143l-80 -125h199q16 0 13 -15l-8 -37q-2 -8 -5.5 -10.5t-11.5 -2.5h-229l-69 -108q-10 -17 -26 -17h-37q-8 0 -10 3.5t4 13.5l69 108h-113 q-15 0 -12 15l8 38q2 6 5 9t11 3h142l80 125h-198q-15 0 -12 15l7 35q2 8 5.5 11.5t12.5 3.5h227z" />
<glyph unicode="&#x2264;" d="M412 215q13 -8 2 -22l-16 -22q-9 -12 -27 -1l-279 168q-6 4 -5 15l3 18q2 10 12 15l346 171q15 7 21 -6l11 -26q6 -15 -9 -22l-293 -148zM378 59q14 0 11 -15l-5 -31q-3 -13 -17 -13h-348q-16 0 -13 15l5 29q3 15 19 15h348z" />
<glyph unicode="&#x2265;" d="M406 59q14 0 11 -15l-5 -31q-3 -13 -17 -13h-348q-16 0 -13 15l5 29q3 15 19 15h348zM141 509q-13 8 -2 22l16 22q9 12 27 1l279 -168q6 -4 5 -15l-3 -18q-2 -10 -12 -15l-346 -171q-15 -8 -21 6l-11 26q-6 15 9 22l293 148z" />
<glyph unicode="&#x25ca;" d="M327 585h-2l-202 -270l92 -254h2l204 272zM243 6q-14 -15 -29 -15h-18q-13 0 -18 15l-111 285q-5 13 -5 21q0 4 1 9t2 9q2 6 4.5 11.5t9.5 13.5l224 293q7 8 12 11.5t13 3.5h20q8 0 12 -3.5t8 -11.5l111 -293q4 -11 4 -19q0 -5 -0.5 -9t-1.5 -9q-2 -8 -4.5 -13.5 t-9.5 -13.5z" />
<glyph unicode="&#x2713;" horiz-adv-x="746" d="M189 68l507 425q8 7 12.5 6.5t9.5 -6.5l20 -24q5 -6 3 -10.5t-11 -12.5l-536 -449q-7 -6 -13 -6q-5 0 -12 8l-139 172q-6 8 -6 12.5t7 10.5l21 17q14 11 22 0z" />
<glyph unicode="&#xe000;" horiz-adv-x="490" d="M0 490h490v-490h-490v490z" />
<glyph unicode="&#xf8ff;" horiz-adv-x="536" d="M239 199v64h193v63h-193v192h255v-64h-191v-64h191v-191h-255zM175 583v-519h72v-64h-136v647h383v-64h-319z" />
<glyph horiz-adv-x="308" d="M360 745q13 -6 7 -18l-10 -23q-4 -11 -20 -5l-191 68q-10 4 -12 9.5t1 14.5l11 31q6 16 25 7z" />
<glyph horiz-adv-x="308" d="M329 829q19 9 25 -7l13 -35q3 -8 -0.5 -12.5t-17.5 -9.5l-186 -66q-16 -6 -21 7l-8 19q-6 15 8 21z" />
<glyph horiz-adv-x="341" d="M202 823q37 0 37 -29v-7.5t-5 -25.5q-4 -20 -18 -29.5t-34 -9.5h-10q-16 0 -25.5 7t-9.5 21q0 2 0.5 8t4.5 26q4 19 17.5 29t32.5 10h10zM364 823q37 0 37 -29q0 -2 -1 -10.5t-4 -22.5q-4 -20 -18 -29.5t-34 -9.5h-10q-16 0 -25.5 7t-9.5 21q0 4 1.5 12t3.5 22 q3 19 16.5 29t33.5 10h10z" />
<glyph horiz-adv-x="376" d="M320 850q5 0 8.5 -1.5t7.5 -6.5l84 -111q8 -11 -4 -20l-20 -15q-14 -8 -22 2l-75 84h-5l-112 -86q-11 -10 -22 -2l-23 19q-11 7 3 19l129 110q5 5 10 6.5t10 1.5h31z" />
<glyph horiz-adv-x="407" d="M139 730q-10 7 -1 20q28 39 56.5 58t55.5 19q19 0 30.5 -4.5t25.5 -15.5l25 -20q11 -9 17.5 -12.5t15.5 -3.5q12 0 26 11t35 34q10 12 20 3l17 -14q10 -7 0 -20q-27 -38 -56 -56.5t-58 -18.5q-17 0 -29.5 4.5t-24.5 14.5l-25 20q-9 8 -15 12t-14 4q-15 0 -28 -9t-35 -35 q-10 -12 -22 -3z" />
<glyph horiz-adv-x="339" d="M384 792q16 0 13 -15l-8 -35q-3 -13 -17 -13h-226q-14 0 -11 15l7 33q2 7 5 11t12 4h225z" />
<glyph horiz-adv-x="376" d="M275 691q-54 0 -88.5 26t-39.5 81q0 8 2 13.5t10 7.5l30 8q16 5 18 -11q4 -38 23 -54t51 -16q30 0 55 15.5t49 57.5q7 12 20 8l26 -8q8 -2 8.5 -6.5t-2.5 -11.5q-25 -56 -66.5 -83t-95.5 -27z" />
<glyph horiz-adv-x="204" d="M137 746q0 29 19.5 51.5t51.5 22.5q24 0 37.5 -13.5t13.5 -37.5q0 -15 -6.5 -27.5t-16.5 -21.5t-23.5 -14.5t-26.5 -5.5q-20 0 -34.5 13t-14.5 33z" />
<glyph horiz-adv-x="266" d="M135 756q0 23 8.5 42.5t23.5 33.5t34.5 21.5t42.5 7.5q35 0 56 -21t21 -53q0 -49 -31.5 -78.5t-76.5 -29.5q-36 0 -57 21t-21 56zM236 814q-23 0 -38 -15.5t-15 -38.5q0 -15 9.5 -24.5t26.5 -9.5q23 0 38.5 15.5t15.5 36.5q0 16 -10 26t-27 10z" />
<glyph horiz-adv-x="488" d="M302 849q16 12 27 -4l17 -23q10 -15 -7 -26l-170 -102q-8 -5 -12.5 -4t-9.5 8l-13 17q-8 12 4 21zM505 849q16 12 27 -4l17 -23q10 -15 -7 -26l-170 -102q-8 -5 -12.5 -4t-9.5 8l-13 17q-8 12 4 21z" />
<glyph horiz-adv-x="376" d="M256 700q-5 0 -8.5 1.5t-7.5 6.5l-84 119q-8 11 4 20l20 15q14 8 22 -2l75 -92h5l112 94q11 10 22 2l23 -19q11 -7 -3 -19l-129 -118q-5 -5 -10 -6.5t-10 -1.5h-31z" />
<glyph horiz-adv-x="604" d="M116 461q0 103 56 149t168 46q36 0 72.5 -6.5t63.5 -17.5q6 -2 9 -6t-1 -12l-15 -32q-3 -7 -8.5 -7t-13.5 3q-30 11 -57 15.5t-56 4.5q-57 0 -90.5 -18.5t-44.5 -50.5q-5 -16 -7.5 -29t-2.5 -30q0 -37 25 -62t93 -25h291q16 0 13 -13l-7 -32q-3 -15 -18 -15h-105 l-48 -252q-3 -15 -6 -25t-8 -16.5t-13 -11t-20 -7.5q-34 -9 -76.5 -14.5t-88.5 -5.5q-52 0 -88.5 8t-59.5 25t-33.5 43.5t-10.5 64.5q0 13 2.5 36t6.5 41q13 62 46.5 99t93.5 51v2q-62 32 -62 100zM294 323q-84 0 -127 -26t-56 -90q-3 -15 -6 -36t-3 -33q0 -26 6 -43.5 t21.5 -28t42 -15t66.5 -4.5q24 0 50.5 2.5t48.5 7.5q15 3 20.5 9.5t7.5 19.5l46 237h-117z" />
<glyph horiz-adv-x="746" d="M0 0z" />
</font>
</defs>
</svg>
