<?xml version="1.0" standalone="no"?>
<!DOCTYPE svg PUBLIC "-//W3C//DTD SVG 1.1//EN" "http://www.w3.org/Graphics/SVG/1.1/DTD/svg11.dtd" >
<svg xmlns="http://www.w3.org/2000/svg">
<metadata></metadata>
<defs>
<font id="eewbold" horiz-adv-x="540" >
<font-face units-per-em="1000" ascent="750" descent="-250" />
<missing-glyph horiz-adv-x="225" />
<glyph unicode="fi" horiz-adv-x="574" d="M209 25q0 -15 -5.5 -20t-22.5 -5h-63q-17 0 -22.5 5t-5.5 20v365h-51q-14 0 -19.5 4.5t-5.5 17.5v42q0 12 4 15.5t16 5.5l56 10v39q0 85 53.5 122.5t168.5 37.5q35 0 70 -3.5t58 -8.5q11 -2 14.5 -5t1.5 -14l-10 -62q-2 -11 -5.5 -13.5t-14.5 -0.5q-19 4 -48 6.5t-61 2.5 q-59 0 -83.5 -14.5t-24.5 -54.5v-27h274q17 0 22.5 -5t5.5 -20v-440q0 -15 -5.5 -20t-22.5 -5h-63q-17 0 -22.5 5t-5.5 20v365h-183v-365z" />
<glyph unicode="fl" horiz-adv-x="615" d="M209 25q0 -15 -5.5 -20t-22.5 -5h-63q-17 0 -22.5 5t-5.5 20v365h-51q-14 0 -19.5 4.5t-5.5 17.5v42q0 12 4 15.5t16 5.5l56 10v39q0 84 45.5 123t142.5 39q33 0 67.5 -3.5t60.5 -8.5l74 3q17 1 22.5 -4.5t5.5 -20.5v-519q0 -18 6.5 -25.5t22.5 -7.5h30q14 0 18.5 -5 t4.5 -19v-52q0 -14 -5 -19t-18 -5h-67q-32 0 -50 5.5t-32 18.5q-15 15 -22 37.5t-7 60.5v456q-15 5 -37 8t-42 3q-55 0 -78 -14t-23 -58v-27h93q14 0 18.5 -4.5t4.5 -17.5v-58q0 -11 -5 -15.5t-20 -4.5h-91v-365z" />
<glyph unicode="&#xd;" horiz-adv-x="225" />
<glyph unicode=" "  horiz-adv-x="225" />
<glyph unicode="&#x09;" horiz-adv-x="225" />
<glyph unicode="&#xa0;" horiz-adv-x="225" />
<glyph unicode="!" horiz-adv-x="215" d="M40 625q-1 20 7 29.5t36 9.5h50q29 0 36 -9.5t6 -29.5l-15 -421q-1 -22 -12 -27.5t-32 -5.5h-20q-22 0 -31 5.5t-10 26.5zM175 58q0 -33 -18.5 -50t-48.5 -17h-4q-37 0 -52.5 17t-15.5 50v5q0 35 20 50.5t48 15.5h4q30 0 48.5 -15.5t18.5 -50.5v-5z" />
<glyph unicode="&#x22;" horiz-adv-x="455" d="M44 437zM74 437q-16 0 -16 18l-12 242q-2 21 17 21h101q19 0 17 -21l-12 -242q0 -18 -17 -18h-78zM302 437q-16 0 -16 18l-12 242q-2 21 17 21h101q19 0 17 -21l-12 -242q0 -18 -17 -18h-78z" />
<glyph unicode="#" horiz-adv-x="642" d="M282 353l-17 -73h82l17 73h-82zM139 280l17 73h-91q-19 0 -22.5 7.5t2.5 31.5l8 34q5 20 12 25.5t25 5.5h90l37 164q4 17 16 22.5t29 5.5h50q23 0 29.5 -5t1.5 -26l-37 -161h82l37 164q4 17 16 22.5t29 5.5h51q23 0 29 -5t1 -26l-37 -161h104q19 0 22.5 -7.5t-2.5 -31.5 l-8 -34q-5 -20 -12 -25.5t-25 -5.5h-103l-17 -73h104q19 0 22.5 -7.5t-2.5 -31.5l-8 -34q-5 -20 -12 -25.5t-25 -5.5h-102l-34 -148q-4 -16 -12 -22t-25 -6h-58q-21 0 -27.5 7t-2.5 24l33 145h-82l-34 -148q-4 -17 -12 -22.5t-28 -5.5h-55q-23 0 -29 5t-1 26l33 145h-92 q-19 0 -22.5 7.5t2.5 31.5l8 34q5 20 12 25.5t25 5.5h90z" />
<glyph unicode="$" d="M315 655q35 -2 66.5 -7.5t57.5 -13.5q23 -7 17 -29l-15 -63q-4 -21 -31 -12q-49 15 -95 20v-170l20 -4q46 -10 75 -24t48 -37q17 -21 23.5 -49t6.5 -66v-15q0 -47 -13.5 -85t-40.5 -62q-23 -21 -56 -31.5t-76 -13.5v-67q0 -11 -4 -14.5t-18 -3.5h-28q-14 0 -18 3.5 t-4 14.5v66q-44 2 -84.5 11t-70.5 20q-14 5 -18 11.5t-1 20.5l11 59q2 13 11.5 16t19.5 -1q29 -12 64.5 -21.5t67.5 -12.5v190l-14 3q-48 11 -75 23t-47 34q-38 41 -38 122v13q0 94 58 138q44 32 129 37v73q0 11 4 14.5t18 3.5h28q14 0 18 -3.5t4 -14.5v-73zM353 242 q-13 16 -51 27v-171q27 4 43 18q12 10 16 26t4 39v8q0 38 -12 53zM195 418q14 -14 48 -23v155q-28 -4 -41 -13q-11 -7 -17 -21.5t-6 -38.5v-8q0 -19 3.5 -30.5t12.5 -20.5z" />
<glyph unicode="%" horiz-adv-x="890" d="M359 467q0 -42 -9 -80t-36 -64q-17 -17 -42.5 -26t-60.5 -9t-60.5 9t-42.5 26q-28 26 -36.5 64t-8.5 80v10q0 42 8.5 80.5t36.5 64.5q17 16 42.5 25t60.5 9t60.5 -9t42.5 -25q27 -26 36 -64.5t9 -80.5v-10zM244 476q0 52 -8 69.5t-25 17.5q-18 0 -26 -17.5t-8 -69.5v-8 q0 -52 8 -69.5t26 -17.5q17 0 25 17.5t8 69.5v8zM560 633q8 14 17 18.5t26 4.5h60q20 0 23 -9.5t-7 -26.5l-353 -606q-8 -14 -17 -18.5t-26 -4.5h-60q-20 0 -23 9.5t7 26.5zM827 170q0 -42 -9 -80t-36 -64q-17 -17 -42.5 -26t-60.5 -9t-60.5 9t-42.5 26q-28 26 -36.5 64 t-8.5 80v10q0 42 8.5 80.5t36.5 64.5q17 16 42.5 25t60.5 9t60.5 -9t42.5 -25q27 -26 36 -64.5t9 -80.5v-10zM712 179q0 52 -8 69.5t-25 17.5q-18 0 -26 -17.5t-8 -69.5v-8q0 -52 8 -69.5t26 -17.5q17 0 25 17.5t8 69.5v8z" />
<glyph unicode="&#x26;" horiz-adv-x="618" d="M556 248q0 -44 -6.5 -74t-17.5 -51l63 -60q13 -12 12.5 -19.5t-13.5 -20.5l-35 -35q-11 -11 -19 -10.5t-19 11.5l-57 54q-72 -52 -184 -52h-18q-122 0 -178 46.5t-56 128.5v16q0 53 33.5 98t85.5 67q-38 32 -58.5 69.5t-20.5 71.5v11q0 35 13.5 64t39 49.5t61.5 32 t80 11.5t79.5 -11.5t60 -32.5t37.5 -49t13 -61v-13q0 -57 -32.5 -100t-86.5 -74l113 -110q7 24 7 63v28q0 11 4 14.5t14 3.5h68q10 0 13.5 -3.5t3.5 -14.5v-48zM289 88q63 0 99 28l-176 169q-28 -19 -43 -44.5t-15 -58.5v-10q0 -42 33 -63t87 -21h15zM328 493q0 33 -18 50 t-48 17q-32 0 -51 -16t-19 -46v-7q0 -26 15 -47.5t38 -44.5l24 -23q59 41 59 108v9z" />
<glyph unicode="'" horiz-adv-x="227" d="M74 437q-16 0 -16 18l-12 242q-2 21 17 21h101q19 0 17 -21l-12 -242q0 -18 -17 -18h-78z" />
<glyph unicode="(" horiz-adv-x="320" d="M190 662q14 16 23 15.5t26 -8.5l30 -15q20 -10 23.5 -18.5t-5.5 -20.5q-60 -80 -88 -163.5t-28 -169.5q0 -47 6 -88.5t19.5 -81.5t35 -79t52.5 -80q14 -20 9 -27t-20 -15l-33 -17q-20 -11 -29 -10t-23 18q-72 88 -107.5 183t-35.5 195q0 98 32.5 193t112.5 189z" />
<glyph unicode=")" horiz-adv-x="320" d="M130 662q80 -94 112.5 -189t32.5 -193q0 -100 -35.5 -195t-107.5 -183q-14 -17 -21.5 -18.5t-24.5 7.5l-43 22q-14 8 -17 15.5t10 24.5q31 41 53 80t35 79t19 81.5t6 88.5q0 86 -28 169.5t-88 163.5q-9 12 -5.5 20.5t23.5 18.5l30 15q17 8 26 8.5t23 -15.5z" />
<glyph unicode="*" horiz-adv-x="388" d="M321 478q8 -8 8.5 -17.5t-8.5 -15.5l-47 -30q-13 -8 -19 -4.5t-12 14.5l-49 89l-49 -89q-6 -11 -12 -14.5t-19 4.5l-47 30q-9 6 -8.5 15.5t8.5 17.5l75 76l-101 28q-15 3 -9 19l18 53q7 17 25 7l83 -35l-10 96q-2 10 0 16t14 6h65q12 0 14 -6t0 -16l-10 -96l83 35 q8 5 15 4t10 -11l17 -53q6 -15 -9 -19l-101 -28z" />
<glyph unicode="+" d="M329 314h143q25 0 30.5 -10t5.5 -27v-38q0 -26 -12 -30.5t-24 -4.5h-143v-153q0 -19 -11.5 -25.5t-31.5 -6.5h-36q-20 0 -29.5 6.5t-9.5 25.5v153h-143q-26 0 -31 9.5t-5 27.5v36q0 17 5 27t31 10h143v151q0 23 10 28.5t32 5.5h33q19 0 31 -5.5t12 -28.5v-151z" />
<glyph unicode="," horiz-adv-x="224" d="M122 132q30 0 48 -15.5t18 -47.5v-19q0 -21 -7 -48.5t-19.5 -56t-29 -56t-35.5 -49.5q-9 -11 -16 -12t-22 7l-25 14q-14 8 -14.5 15t5.5 15q11 14 22.5 32.5t20.5 34.5q10 17 10 26.5t-9 15.5l-11 7q-11 7 -16.5 17.5t-5.5 31.5v30q0 29 18 43.5t49 14.5h19z" />
<glyph unicode="-" horiz-adv-x="333" d="M262 313q26 0 32 -10t6 -27v-36q0 -26 -12.5 -30.5t-25.5 -4.5h-191q-26 0 -32 9.5t-6 27.5v34q0 17 6 27t32 10h191z" />
<glyph unicode="." horiz-adv-x="210" d="M174 55q0 -32 -17 -48t-46 -16h-11q-35 0 -49.5 16t-14.5 48v16q0 35 18.5 49t45.5 14h11q29 0 46 -14t17 -49v-16z" />
<glyph unicode="/" horiz-adv-x="395" d="M243 657q6 18 14.5 23.5t31.5 5.5h41q28 0 34.5 -5.5t0.5 -24.5l-213 -650q-6 -18 -14.5 -23.5t-31.5 -5.5h-41q-28 0 -34.5 6t-0.5 24z" />
<glyph unicode="0" d="M270 92q38 0 60 19.5t33.5 51.5t15 72t3.5 82v13q0 42 -3.5 82t-15 72t-33.5 51.5t-60 19.5t-60 -19.5t-33.5 -51.5t-15 -72t-3.5 -82v-13q0 -42 3.5 -82t15 -72t33.5 -51.5t60 -19.5zM270 -9q-64 0 -108.5 22t-73 63.5t-41.5 101t-13 133.5v26q0 74 13 133t41.5 100.5 t73 63.5t108.5 22t108.5 -22t73 -63.5t41.5 -100.5t13 -133v-26q0 -74 -13 -133.5t-41.5 -101t-73 -63.5t-108.5 -22z" />
<glyph unicode="1" d="M107 0q-18 0 -24.5 7t-6.5 25v36q0 19 5.5 24.5t25.5 5.5h118v425h-6l-93 -48q-22 -12 -33 6l-24 45q-14 24 8 36l139 74q15 8 24.5 9.5t24.5 1.5h50q21 0 28.5 -6.5t7.5 -25.5v-517h107q18 0 24.5 -7t6.5 -25v-36q0 -19 -5.5 -24.5t-25.5 -5.5h-351z" />
<glyph unicode="2" d="M262 554q-32 0 -68.5 -8t-70.5 -22q-24 -9 -30 12l-13 52q-2 11 0.5 18t14.5 12q38 17 87.5 27.5t94.5 10.5q43 0 80 -9.5t64 -30t42.5 -52t15.5 -76.5v-14q0 -38 -7.5 -68t-24 -53.5t-42 -42t-60.5 -34.5l-74 -34q-25 -11 -42.5 -23t-29 -27t-17 -33.5t-5.5 -42.5v-18 h265q16 0 22.5 -5.5t6.5 -22.5v-44q0 -17 -7 -21.5t-22 -4.5h-349q-20 0 -28 6t-8 23v59q0 90 34 145.5t97 84.5l79 36q26 12 42.5 22.5t26 23.5t13 30t3.5 40v7q0 40 -21 58.5t-69 18.5z" />
<glyph unicode="3" d="M66 92q5 17 12 21.5t22 -0.5q12 -5 29 -9t35 -7.5t36 -5.5t33 -2q69 0 98 26q14 12 19.5 29.5t5.5 41.5v8q0 26 -6.5 43.5t-22.5 29.5q-8 6 -17 10.5t-20.5 7t-26.5 3.5t-36 1h-40q-15 0 -19.5 4.5t-4.5 18.5v51q0 14 4.5 19.5t20.5 5.5h25q30 0 52.5 5t42.5 18 q17 11 24 31.5t7 41.5v7q0 38 -25 54q-12 8 -28 10.5t-36 2.5q-15 0 -32.5 -2.5t-35 -7t-34 -10t-29.5 -11.5q-14 -6 -20 -2t-9 15l-13 48q-3 12 -0.5 19.5t15.5 12.5q36 15 84 25.5t91 10.5q42 0 77 -7t64 -27q27 -19 42 -48t15 -75v-11q0 -51 -21.5 -89t-69.5 -53 q55 -14 81.5 -53t26.5 -97v-16q0 -41 -12.5 -75.5t-41.5 -60.5q-59 -53 -187 -53q-18 0 -40 2t-44.5 5.5t-43.5 8t-38 9.5q-15 5 -20 12.5t0 24.5z" />
<glyph unicode="4" d="M317 251v265h-5l-169 -265h174zM317 150h-269q-18 0 -25 5t-7 22v31q0 13 8 26.5t18 29.5l229 354q11 18 20 23.5t26 5.5h83q23 0 31 -7t8 -28v-361h56q18 0 23 -7t5 -25v-39q0 -19 -4 -24.5t-24 -5.5h-56v-121q0 -17 -6 -23t-23 -6h-64q-17 0 -23 6t-6 23v121z" />
<glyph unicode="5" d="M211 547q-13 0 -14 -13l-7 -138q21 9 48.5 14.5t58.5 5.5q100 0 148 -51q24 -26 36 -59.5t12 -88.5v-17q0 -58 -18 -96t-44 -62q-30 -29 -73 -40t-106 -11q-47 0 -97 11t-90 29q-11 5 -13 13.5t4 25.5l11 38q5 17 13 19.5t21 -2.5q16 -7 35 -13t38.5 -11t38.5 -8t34 -3 q67 0 94 23q28 24 28 85v11q0 55 -27 82q-26 26 -78 26q-30 0 -61.5 -8t-54.5 -19q-13 -6 -19.5 -6.5t-14.5 4.5l-28 17q-8 5 -10 10.5t-1 17.5l18 289q1 14 6.5 19.5t21.5 5.5h299q17 0 22 -5t5 -21v-50q0 -15 -5 -19.5t-24 -4.5h-207z" />
<glyph unicode="6" d="M282 314q-32 0 -60 -9t-51 -26q0 -59 6.5 -95.5t21.5 -59.5q13 -19 31.5 -27t47.5 -8q24 0 41.5 7t29.5 19q15 16 20.5 36t5.5 46v12q0 26 -4 43.5t-15 31.5q-23 30 -74 30zM441 635q12 -5 16 -10.5t1 -19.5l-13 -50q-3 -12 -9.5 -16t-20.5 1q-20 7 -45 11.5t-53 4.5 q-37 0 -62 -10.5t-42 -30.5q-20 -23 -29.5 -58t-10.5 -77q23 15 58.5 25.5t68.5 10.5q93 0 144 -48q55 -51 55 -151v-15q0 -46 -14 -85t-43 -68q-28 -27 -68.5 -42.5t-95.5 -15.5q-69 0 -114 21t-71.5 60.5t-37 96t-10.5 126.5v40q0 77 17.5 143t53.5 105q39 43 87 58 t111 15q34 0 69.5 -6.5t57.5 -14.5z" />
<glyph unicode="7" d="M221 22q-6 -12 -15 -17t-27 -5h-71q-19 0 -23 7t2 18l267 522h-269q-17 0 -23 5t-6 21v45q0 17 6 23t23 6h378q17 0 24 -5t7 -20v-30q0 -18 -8 -35t-21 -42z" />
<glyph unicode="8" d="M57 487q0 38 15 69.5t43.5 53.5t68.5 34t90 12q42 0 80.5 -10.5t67 -31.5t45.5 -51.5t17 -70.5v-7q0 -93 -85 -147q59 -31 80 -68.5t21 -84.5v-12q0 -45 -19 -82t-48 -57q-29 -21 -68.5 -32t-90.5 -11q-48 0 -93.5 11t-71.5 29q-70 48 -70 134v12q0 51 28 91.5t73 63.5 q-40 26 -61.5 60.5t-21.5 88.5v6zM166 179q0 -21 7.5 -39.5t21.5 -29.5q28 -22 79 -22q53 0 79 24q11 11 16 27.5t5 33.5v4q0 32 -26 54t-89 45l-39 15q-29 -19 -41.5 -48t-12.5 -60v-4zM358 481q0 20 -6.5 36t-17.5 25q-10 9 -26.5 14t-35.5 5q-17 0 -35 -4.5t-29 -12.5 t-20 -22.5t-9 -32.5v-5q0 -32 21.5 -53t74.5 -41l36 -14q23 18 35 44t12 55v6z" />
<glyph unicode="9" d="M263 330q32 0 58 9t53 29q0 59 -6.5 95.5t-21.5 59.5q-13 19 -31.5 27t-47.5 8q-51 0 -76 -30q-11 -14 -16 -34.5t-5 -46.5v-12q0 -26 4 -43.5t15 -31.5q22 -30 74 -30zM96 11q-9 3 -12 8t-1 16l13 56q3 13 8 15.5t19 -1.5q21 -6 49 -10t57 -4q76 0 109 39q20 23 25 55.5 t7 74.5q-26 -15 -56.5 -23.5t-63.5 -8.5q-51 0 -86.5 12t-61.5 36q-29 26 -42.5 66.5t-13.5 89.5v16q0 93 55 150q28 29 70 43.5t96 14.5q57 0 96.5 -13.5t70.5 -45.5q38 -39 52 -103t14 -146v-32q0 -86 -17.5 -148.5t-49.5 -99.5q-39 -45 -89 -61t-113 -16q-44 0 -76.5 5.5 t-58.5 14.5z" />
<glyph unicode=":" horiz-adv-x="238" d="M50 0zM188 436q0 -32 -17 -48t-46 -16h-11q-35 0 -49.5 16t-14.5 48v16q0 35 18.5 49t45.5 14h11q29 0 46 -14t17 -49v-16zM188 55q0 -32 -17 -48t-46 -16h-11q-35 0 -49.5 16t-14.5 48v16q0 35 18.5 49t45.5 14h11q29 0 46 -14t17 -49v-16z" />
<glyph unicode=";" horiz-adv-x="224" d="M19 0zM179 436q0 -32 -17 -48t-46 -16h-11q-35 0 -49.5 16t-14.5 48v16q0 35 18.5 49t45.5 14h11q29 0 46 -14t17 -49v-16zM122 132q30 0 48 -15.5t18 -47.5v-19q0 -21 -7 -48.5t-19.5 -56t-29 -56t-35.5 -49.5q-9 -11 -16 -12t-22 7l-25 14q-14 8 -14.5 15t5.5 15 q11 14 22.5 32.5t20.5 34.5q10 17 10 26.5t-9 15.5l-11 7q-11 7 -16.5 17.5t-5.5 31.5v30q0 29 18 43.5t49 14.5h19z" />
<glyph unicode="&#x3c;" d="M46 273q0 12 3.5 19t14.5 13l341 181q20 11 27.5 10t15.5 -15l28 -51q8 -14 3 -23t-23 -19l-240 -127l240 -127q16 -8 22 -18t-2 -24l-28 -51q-6 -11 -14.5 -13.5t-28.5 8.5l-341 180q-11 6 -14.5 13t-3.5 19v25z" />
<glyph unicode="=" d="M68 314q-26 0 -31 9.5t-5 27.5v36q0 17 5 27t31 10h404q25 0 30.5 -10t5.5 -27v-38q0 -26 -12 -30.5t-24 -4.5h-404zM68 94q-26 0 -31 9.5t-5 27.5v36q0 17 5 27t31 10h404q25 0 30.5 -10t5.5 -27v-38q0 -26 -12 -30.5t-24 -4.5h-404z" />
<glyph unicode="&#x3e;" d="M494 248q0 -12 -3.5 -19t-14.5 -13l-341 -180q-20 -11 -28.5 -8.5t-14.5 13.5l-28 51q-8 14 -2 24t22 18l240 127l-240 127q-18 10 -23.5 17.5t2.5 21.5l28 51q8 14 16 16.5t28 -8.5l341 -181q11 -6 14.5 -13t3.5 -19v-25z" />
<glyph unicode="?" horiz-adv-x="445" d="M214 192q0 -20 -25 -20h-55q-22 0 -22 20q0 32 0.5 53t8.5 39q11 23 29 38t42 31l32 21q36 23 51 45.5t15 55.5v11q0 37 -21 55q-12 10 -28.5 13.5t-39.5 3.5q-30 0 -63 -8t-62 -19q-24 -9 -32 14l-13 43q-4 14 0.5 21t15.5 12q32 14 78 24.5t92 10.5q90 0 143 -39.5 t53 -122.5v-13q0 -54 -26.5 -94t-74.5 -72l-31 -21q-17 -11 -32 -21.5t-26 -21.5q-8 -9 -8.5 -25t-0.5 -34zM232 58q0 -33 -18.5 -50t-48.5 -17h-4q-37 0 -52.5 17t-15.5 50v5q0 35 20 50.5t48 15.5h4q30 0 48.5 -15.5t18.5 -50.5v-5z" />
<glyph unicode="@" horiz-adv-x="807" d="M767 379q0 -59 -15 -104.5t-41 -77t-62.5 -48t-78.5 -16.5q-45 0 -76.5 14.5t-45.5 37.5h-3q-12 -16 -33.5 -25.5t-50.5 -9.5h-7q-111 0 -111 109q0 26 4 58t8 54q12 66 44 96.5t85 30.5h6q63 0 91 -39l7 15q4 8 7.5 10.5t14.5 2.5h45q11 0 16 -3.5t3 -14.5l-24 -187 q-2 -12 -3.5 -24.5t-1.5 -23.5q0 -14 9.5 -21t24.5 -7q34 0 58.5 42t24.5 117q0 56 -17 98t-47.5 70t-73 42t-93.5 14q-60 0 -110 -19t-85.5 -56.5t-55 -92.5t-19.5 -128q0 -111 61 -172t194 -61q20 0 44.5 2t50.5 6.5t51.5 10t46.5 13.5t25 -12l9 -41q2 -12 -2 -18t-15 -10 q-44 -17 -104 -29t-116 -12q-182 0 -274 81t-92 235q0 95 30 168.5t83.5 124t126.5 76.5t160 26q69 0 128.5 -19.5t104 -57.5t69.5 -94.5t25 -130.5zM450 367q7 53 -36 53h-6q-19 0 -29 -12.5t-15 -43.5q-2 -10 -4 -23t-4 -27t-3 -27.5t-1 -22.5q0 -23 7.5 -31.5t25.5 -8.5 h5q23 0 33.5 15.5t15.5 47.5z" />
<glyph unicode="A" horiz-adv-x="569" d="M279 519q-20 -64 -39 -131l-38 -134h166l-38 134t-39 131h-12zM140 26q-5 -17 -14 -21.5t-29 -4.5h-53q-21 0 -31.5 3t-5.5 23q21 76 45 155t48.5 155t48.5 146t45 129q8 23 21.5 29.5t44.5 6.5h49q31 0 45.5 -6.5t22.5 -29.5q21 -59 45 -129t48 -146t47.5 -155 t44.5 -155q5 -20 -5 -23t-31 -3h-53q-20 0 -29 4.5t-14 21.5l-33 123h-224z" />
<glyph unicode="B" horiz-adv-x="557" d="M235 656q63 0 110.5 -11t79.5 -35q26 -20 39.5 -49t13.5 -68v-16q0 -42 -18.5 -75.5t-58.5 -52.5q52 -14 84 -50t32 -97v-14q0 -91 -57 -136q-35 -27 -89.5 -39.5t-131.5 -12.5q-34 0 -70.5 1.5t-63.5 3.5q-23 2 -30 11t-7 32v558q0 23 7.5 31t27.5 11q28 4 61.5 6 t70.5 2zM388 200q0 23 -8.5 39.5t-22.5 27.5q-15 11 -36.5 16t-53.5 5h-73v-167q0 -8 2.5 -11.5t11.5 -5.5q19 -3 53 -3q36 0 59 5t39 16q29 21 29 66v12zM253 554h-27.5t-20.5 -1q-11 -1 -11 -15v-153h48q49 0 78 18t29 66v12q0 37 -23 55t-73 18z" />
<glyph unicode="C" horiz-adv-x="533" d="M310 656q48 0 95 -11.5t84 -33.5q8 -5 10 -11t-3 -18l-24 -60q-5 -11 -14 -11t-18 5q-32 17 -65 26.5t-65 9.5q-37 0 -58 -7.5t-37 -23.5q-23 -23 -30.5 -68t-7.5 -120v-18q0 -78 8 -119.5t26 -63.5q31 -37 112 -37q32 0 66 7.5t62 19.5q24 10 30 -16l12 -48 q3 -14 0 -21.5t-21 -14.5q-36 -14 -78 -22.5t-86 -8.5q-70 0 -116 13t-78 45q-36 36 -51 96t-15 158v40q0 52 4.5 93t14.5 72.5t26.5 56t41.5 44.5q60 47 175 47z" />
<glyph unicode="D" horiz-adv-x="617" d="M246 550h-19t-16 -1q-17 -1 -17 -18v-407q0 -23 24 -23h31q53 0 89.5 11t59 35t32.5 62.5t10 94.5v44q0 57 -9 95.5t-31 62t-59.5 34t-94.5 10.5zM217 0q-29 0 -60.5 -0.5t-53.5 1.5q-20 2 -27.5 10t-7.5 31v562q0 23 7.5 31.5t27.5 10.5q60 6 140 6q89 0 146.5 -16 t97.5 -51q43 -38 62.5 -94t19.5 -139v-57q0 -161 -88 -230q-23 -18 -48.5 -30.5t-56.5 -20t-70 -11t-89 -3.5z" />
<glyph unicode="E" horiz-adv-x="498" d="M176 282q0 -41 1.5 -77t5.5 -74q2 -17 9 -22.5t23 -5.5h217q17 0 21.5 -5t4.5 -19v-55q0 -14 -4.5 -19t-21.5 -5h-229q-38 0 -64 5t-43 19t-23.5 35.5t-11.5 56.5q-5 40 -7 90.5t-2 96.5v41q0 44 2 95.5t7 91.5q4 37 13 58.5t26 35.5t42.5 18t60.5 4h230q17 0 21 -5 t4 -19v-55q0 -14 -4 -19t-21 -5h-218q-14 0 -22.5 -6.5t-10.5 -23.5q-2 -26 -4 -59t-2 -70h224q17 0 21 -5t4 -19v-55q0 -14 -4 -19t-21 -5h-224z" />
<glyph unicode="F" horiz-adv-x="495" d="M192 275v-250q0 -16 -5 -20.5t-22 -4.5h-72q-17 0 -22 4.5t-5 20.5v505q0 29 6.5 49.5t21.5 36.5q17 17 40.5 24t49.5 7h247q15 0 20.5 -5t5.5 -19v-55q0 -14 -5.5 -19t-20.5 -5h-209q-15 0 -22 -7q-4 -4 -6 -9.5t-2 -16.5v-133h224q15 0 19.5 -5t4.5 -19v-55 q0 -14 -4.5 -19t-19.5 -5h-224z" />
<glyph unicode="G" horiz-adv-x="593" d="M515 617q17 -9 10 -31l-19 -57q-3 -11 -11.5 -13.5t-18.5 2.5q-28 14 -68 24t-76 10q-38 0 -66.5 -8t-47.5 -29q-22 -24 -31.5 -67.5t-9.5 -112.5v-22q0 -37 1.5 -64.5t5 -48.5t10 -36.5t15.5 -27.5q17 -23 45 -32t70 -9q26 0 46 1t31 3q9 2 12.5 5.5t3.5 13.5v145h-74 q-16 0 -21.5 4.5t-5.5 18.5v56q0 14 5.5 19.5t21.5 5.5h176q14 0 19 -6t5 -19v-290q0 -18 -4.5 -25.5t-21.5 -12.5q-42 -11 -92 -17t-95 -6q-82 0 -131.5 14.5t-82.5 47.5q-38 37 -53 99t-15 153v39q0 179 78 251q36 33 89 47t124 14q24 0 49 -3.5t48.5 -8.5t44 -12.5 t34.5 -14.5z" />
<glyph unicode="H" horiz-adv-x="632" d="M564 25q0 -16 -5 -20.5t-22 -4.5h-72q-17 0 -22 4.5t-5 20.5v252h-244v-252q0 -16 -5 -20.5t-22 -4.5h-72q-17 0 -22 4.5t-5 20.5v597q0 16 5 20.5t22 4.5h72q17 0 22 -4.5t5 -20.5v-242h244v242q0 16 5 20.5t22 4.5h72q17 0 22 -4.5t5 -20.5v-597z" />
<glyph unicode="I" horiz-adv-x="270" d="M198 25q0 -16 -5 -20.5t-22 -4.5h-72q-17 0 -22 4.5t-5 20.5v597q0 16 5 20.5t22 4.5h72q17 0 22 -4.5t5 -20.5v-597z" />
<glyph unicode="J" horiz-adv-x="342" d="M277 206q0 -58 -9 -95t-32 -62q-24 -26 -60 -37.5t-83 -11.5h-54q-17 0 -21.5 5.5t-4.5 19.5v54q0 15 4.5 20.5t21.5 5.5h43q20 0 34.5 6t22.5 19q4 6 6 12.5t3.5 15.5t2 21.5t0.5 31.5v411q0 16 5 20.5t22 4.5h72q17 0 22 -4.5t5 -20.5v-416z" />
<glyph unicode="K" horiz-adv-x="558" d="M194 25q0 -16 -5 -20.5t-22 -4.5h-72q-17 0 -22 4.5t-5 20.5v597q0 16 5 20.5t22 4.5h72q17 0 22 -4.5t5 -20.5v-238h26q11 0 16.5 3.5t10.5 11.5l152 228q8 11 15.5 15.5t24.5 4.5h80q18 0 23.5 -7.5t-4.5 -21.5l-185 -262q-3 -5 -6.5 -9.5t-3.5 -9.5q0 -4 3.5 -9.5 t6.5 -10.5l187 -292q16 -25 -20 -25h-81q-18 0 -25.5 4t-14.5 15l-148 247q-5 8 -10.5 11.5t-16.5 3.5h-30v-256z" />
<glyph unicode="L" horiz-adv-x="436" d="M194 122q0 -19 19 -19h168q17 0 22 -5t5 -19v-55q0 -14 -5 -19t-22 -5h-212q-55 0 -79 24q-12 12 -17 28.5t-5 43.5v526q0 16 5 20.5t22 4.5h72q17 0 22 -4.5t5 -20.5v-500z" />
<glyph unicode="M" horiz-adv-x="785" d="M370 81q-19 0 -29 2t-18 20q-14 34 -31.5 81.5t-36.5 99.5t-36.5 103.5t-31.5 93.5h-5q-1 -51 -1.5 -108t-0.5 -116v-118.5v-115.5q0 -17 -6 -20t-23 -3h-67q-17 0 -23.5 3t-5.5 20q2 74 4 150.5t4.5 152t5.5 148.5t8 141q2 23 12 27.5t38 4.5h67q30 0 40.5 -4t17.5 -25 q35 -106 70 -211t68 -198h5q35 93 71 197.5t69 210.5q3 10 7 16t10 9t15.5 4t24.5 1h67q28 0 37.5 -5t11.5 -28q5 -68 8 -141t5.5 -148t4.5 -151.5t4 -150.5q1 -17 -5.5 -20t-23.5 -3h-67q-17 0 -23 3t-6 20v115.5v118.5t-1 116t-2 108h-5q-14 -42 -32 -93.5l-36 -103 t-35 -99.5t-29 -82q-7 -19 -18 -20.5t-30 -1.5h-47z" />
<glyph unicode="N" horiz-adv-x="642" d="M68 622q0 16 5 20.5t22 4.5h60q20 0 30 -5t19 -19l249 -412h4v411q0 16 5 20.5t22 4.5h63q17 0 22 -4.5t5 -20.5v-597q0 -16 -5 -20.5t-22 -4.5h-60q-20 0 -30 5t-19 19l-249 403h-4v-402q0 -16 -5 -20.5t-22 -4.5h-63q-17 0 -22 4.5t-5 20.5v597z" />
<glyph unicode="O" horiz-adv-x="618" d="M441 334q0 50 -5 96.5t-28 80.5q-28 41 -99 41t-99 -41q-23 -34 -28 -80.5t-5 -96.5v-21q0 -50 5 -96.5t28 -80.5q28 -41 99 -41t99 41q23 34 28 80.5t5 96.5v21zM570 303q0 -78 -16.5 -141.5t-57.5 -105.5q-30 -31 -75.5 -48t-111.5 -17q-70 0 -114 16.5t-75 48.5 q-38 42 -55 105.5t-17 141.5v41q0 78 17 141.5t55 105.5q31 32 75 48.5t114 16.5q66 0 111.5 -17t75.5 -48q41 -42 57.5 -105.5t16.5 -141.5v-41z" />
<glyph unicode="P" horiz-adv-x="550" d="M259 554h-28.5t-25.5 -2t-11 -14v-206h62q68 0 96 24.5t28 85.5v13q0 31 -6 48.5t-20 28.5q-15 12 -35.5 17t-59.5 5zM194 25q0 -16 -5 -20.5t-22 -4.5h-72q-17 0 -22 4.5t-5 20.5v583q0 23 7.5 31.5t27.5 10.5q29 4 68 5t85 1q65 0 113.5 -10t80.5 -36q31 -24 45 -62 t14 -93v-18q0 -109 -65 -160q-35 -28 -82 -39t-110 -11h-58v-202z" />
<glyph unicode="Q" horiz-adv-x="618" d="M570 303q0 -78 -16.5 -141.5t-57.5 -105.5q-20 -21 -46 -35.5t-63 -20.5q24 -29 59 -57.5t69 -46.5q15 -8 16 -15.5t-11 -16.5l-52 -39q-19 -15 -39 -1q-45 29 -87 74.5t-72 94.5q-53 4 -88.5 19.5t-61.5 43.5q-38 42 -55 105.5t-17 141.5v41q0 78 17 141.5t55 105.5 q31 32 75 48.5t114 16.5q66 0 111.5 -17t75.5 -48q41 -42 57.5 -105.5t16.5 -141.5v-41zM441 334q0 50 -5 96.5t-28 80.5q-28 41 -99 41t-99 -41q-23 -34 -28 -80.5t-5 -96.5v-21q0 -50 5 -96.5t28 -80.5q28 -41 99 -41t99 41q23 34 28 80.5t5 96.5v21z" />
<glyph unicode="R" horiz-adv-x="557" d="M256 554h-27.5t-22.5 -2q-12 -1 -12 -14v-180h44q44 0 69.5 4.5t39.5 14.5q16 11 22 30.5t6 45.5v12q0 26 -4.5 41.5t-15.5 26.5q-12 11 -34.5 16t-64.5 5zM194 25q0 -16 -5 -20.5t-22 -4.5h-72q-17 0 -22 4.5t-5 20.5v581q0 23 7.5 31t27.5 11q28 4 62.5 6t82.5 2 q74 0 123 -10.5t82 -36.5q51 -41 51 -141v-17q0 -69 -30 -116t-94 -69l148 -245q13 -21 -23 -21h-73q-18 0 -26.5 5.5t-15.5 16.5l-125 223q-5 10 -20 10h-51v-230z" />
<glyph unicode="S" horiz-adv-x="510" d="M234 -9q-20 0 -43 2.5t-46 6.5t-44.5 9t-38.5 11q-14 5 -19 11.5t-2 20.5l11 58q2 14 10 17t18 -1q15 -6 34.5 -11.5t39.5 -10t40 -7t37 -2.5q35 0 58.5 4.5t38.5 17.5q12 10 16 25.5t4 38.5v8q0 38 -12 53q-9 11 -25.5 18t-42.5 13l-69 15q-48 11 -75 23t-47 34 q-38 41 -38 122v13q0 94 58 138q28 20 68.5 29t96.5 9q23 0 46 -2t44 -5.5t39.5 -7.5t31.5 -8t16.5 -9.5t0.5 -19.5l-15 -63q-4 -21 -31 -12q-33 11 -66 17t-63 6q-32 0 -50.5 -3.5t-29.5 -11.5t-17 -22t-6 -38v-8q0 -19 3.5 -30.5t12.5 -20.5q10 -10 27 -16t40 -11l73 -15 q46 -10 75 -24t48 -37q17 -21 23.5 -49t6.5 -66v-15q0 -47 -13.5 -85t-40.5 -62q-29 -26 -74 -36.5t-109 -10.5z" />
<glyph unicode="T" horiz-adv-x="482" d="M304 25q0 -16 -5 -20.5t-22 -4.5h-72q-17 0 -22 4.5t-5 20.5v519h-140q-17 0 -21 5t-4 19v55q0 14 5 19t20 5h406q15 0 20 -5t5 -19v-55q0 -14 -4 -19t-21 -5h-140v-519z" />
<glyph unicode="U" horiz-adv-x="614" d="M554 219q0 -61 -14 -102t-46 -70q-29 -28 -75 -42t-112 -14q-68 0 -112.5 14t-73.5 42q-61 57 -61 172v403q0 16 5 20.5t22 4.5h72q17 0 22 -4.5t5 -20.5v-397q0 -33 6.5 -58t20.5 -39q30 -33 94 -33q35 0 57 8t38 25q26 29 26 97v397q0 16 5 20.5t22 4.5h72 q17 0 22 -4.5t5 -20.5v-403z" />
<glyph unicode="V" horiz-adv-x="551" d="M240 0q-24 0 -34.5 7.5t-16.5 24.5q-21 61 -44.5 134t-47 150.5t-45 156t-38.5 151.5q-3 13 2.5 18t22.5 5h69q16 0 22.5 -3.5t10.5 -19.5q13 -61 29 -125.5t33 -127.5t34.5 -123t34.5 -112h7q17 52 34.5 112t34.5 123t32.5 127.5t29.5 125.5q4 16 10.5 19.5t22.5 3.5h69 q17 0 22.5 -5t2.5 -18q-17 -73 -38.5 -151.5t-45 -156t-47 -150.5t-44.5 -134q-6 -17 -16.5 -24.5t-34.5 -7.5h-71z" />
<glyph unicode="W" horiz-adv-x="815" d="M441 611q20 0 28.5 -5t12.5 -22q11 -51 24 -111l26 -120t25 -117.5t23 -104.5h5q20 101 43 227.5t47 265.5q3 16 10 19.5t23 3.5h69q17 0 22 -5t3 -18q-15 -76 -31.5 -158.5t-33 -161.5t-32.5 -150.5t-29 -125.5q-5 -17 -16 -22.5t-35 -5.5h-71q-24 0 -35 5.5t-16 22.5 q-12 46 -24.5 97.5t-24.5 105.5t-23 108t-21 104h-5q-10 -50 -21 -104t-23 -108t-24.5 -105.5t-24.5 -97.5q-5 -17 -16 -22.5t-35 -5.5h-71q-24 0 -35 5.5t-16 22.5q-13 54 -29 125.5t-32.5 150.5t-33 161.5t-31.5 158.5q-2 13 3 18t22 5h69q16 0 23 -3.5t10 -19.5 q24 -139 47 -265.5t43 -227.5h5q10 47 22.5 104.5t25.5 117.5l26 120t24 111q4 17 12.5 22t28.5 5h67z" />
<glyph unicode="X" horiz-adv-x="575" d="M150 21q-6 -13 -14 -17t-24 -4h-76q-33 0 -20 25l145 275q5 9 7.5 16t2.5 15q0 12 -9 30l-134 263q-12 23 20 23h75q16 0 24 -3t14 -16l99 -214q8 -18 12.5 -25t10.5 -7h9q6 0 10 7t12 25l101 214q6 13 14 16t24 3h75q32 0 20 -23l-134 -263q-9 -18 -9 -30q0 -8 2.5 -15 t7.5 -16l144 -275q13 -25 -20 -25h-76q-16 0 -24 4t-14 17l-109 226q-8 17 -12.5 24.5t-10.5 7.5h-9q-6 0 -10.5 -7.5t-12.5 -24.5z" />
<glyph unicode="Y" horiz-adv-x="499" d="M312 25q0 -16 -5 -20.5t-22 -4.5h-72q-17 0 -22 4.5t-5 20.5v184q-54 94 -96 198.5t-76 218.5q-4 13 2 17t23 4h69q16 0 22.5 -2.5t10.5 -18.5q8 -34 20 -74.5t26 -81.5t29 -81t30 -72h7q15 32 30 72t29 81t26 81.5t20 74.5q4 16 10.5 18.5t22.5 2.5h69q17 0 23 -4t2 -17 q-34 -114 -76 -218.5t-97 -198.5v-184z" />
<glyph unicode="Z" horiz-adv-x="511" d="M435 103q17 0 22 -5t5 -19v-55q0 -14 -5 -19t-22 -5h-369q-18 0 -26 6t-8 24v32q0 9 4.5 17.5t12.5 20.5l272 444h-241q-17 0 -22 5t-5 19v55q0 14 5 19t22 5h366q16 0 23 -5.5t7 -19.5v-30q0 -11 -3.5 -19.5t-13.5 -25.5l-276 -444h252z" />
<glyph unicode="[" horiz-adv-x="320" d="M93 -83q-15 0 -20.5 5t-5.5 19v699q0 14 5.5 19t20.5 5h174q15 0 20.5 -5t5.5 -19v-55q0 -14 -5.5 -19t-20.5 -5h-84v-541h84q15 0 20.5 -5t5.5 -19v-55q0 -14 -5.5 -19t-20.5 -5h-174z" />
<glyph unicode="\" horiz-adv-x="416" d="M34 0zM162.015 657q-5.99902 18 -14.499 23.5q-8.49902 5.5 -31.498 5.5h-40.9971q-27.999 0 -34.498 -5.5q-6.5 -5.5 -0.5 -24.5l212.987 -650q5.99902 -18 14.499 -23.5q8.49902 -5.5 31.498 -5.5h40.9971q27.998 0 34.498 6t0.5 24z" />
<glyph unicode="]" horiz-adv-x="320" d="M53 -83q-15 0 -20.5 5t-5.5 19v55q0 14 5.5 19t20.5 5h84v541h-84q-15 0 -20.5 5t-5.5 19v55q0 14 5.5 19t20.5 5h174q15 0 20.5 -5t5.5 -19v-699q0 -14 -5.5 -19t-20.5 -5h-174z" />
<glyph unicode="^" d="M150 302q-14 -17 -23.5 -19t-29.5 9l-34 20q-12 7 -18.5 12t-7.5 9.5t1.5 10t8.5 13.5l157 213q11 14 19 17.5t25 3.5h43q17 0 25 -3.5t19 -17.5l157 -213q6 -8 8.5 -13.5t1.5 -10t-7.5 -9.5t-18.5 -12l-34 -20q-20 -11 -29.5 -9t-23.5 19l-119 148z" />
<glyph unicode="_" horiz-adv-x="539" d="M75 -78q-26 0 -34.5 8t-8.5 26v23q0 17 8.5 25.5t34.5 8.5h389q26 0 34.5 -8.5t8.5 -25.5v-23q0 -18 -8.5 -26t-34.5 -8h-389z" />
<glyph unicode="`" horiz-adv-x="370" d="M297 608q15 -10 1 -31l-21 -29q-6 -9 -15.5 -11.5t-20.5 4.5l-162 89q-14 8 -15 15t7 19l35 50q7 10 13.5 11.5t17.5 -6.5z" />
<glyph unicode="a" horiz-adv-x="490" d="M316 214q-13 1 -28 1.5t-30 0.5h-35q-17 0 -30.5 -2.5t-21.5 -9.5q-15 -12 -15 -49v-12q0 -32 15 -45q6 -5 16.5 -8.5t27.5 -3.5h36q35 0 50 16t15 51v61zM336 42q-14 -25 -39.5 -38t-70.5 -13h-37q-39 0 -64.5 7.5t-45.5 24.5q-22 19 -32.5 47.5t-10.5 64.5v23 q0 81 42 116q23 20 59 28.5t87 8.5h36q14 0 28.5 -0.5t27.5 -1.5v27q0 37 -17 51q-11 8 -26.5 11t-42.5 3t-60 -5t-63 -14q-12 -4 -17.5 0.5t-7.5 15.5l-9 47q-3 13 -0.5 19.5t15.5 10.5q28 9 69.5 16.5t81.5 7.5q54 0 86 -7.5t58 -24.5q27 -19 39.5 -48.5t12.5 -83.5v-316 q0 -19 -21 -19h-46q-20 0 -24 18l-6 24h-2z" />
<glyph unicode="b" horiz-adv-x="525" d="M364 260q0 44 -3 70.5t-16 44.5q-11 15 -29.5 21t-44.5 6q-49 0 -70 -18q-10 -8 -16 -22.5t-6 -44.5v-135q0 -30 3 -44.5t11 -25.5q11 -13 28 -19t47 -6q54 0 75 27q6 7 10 16t6.5 22.5t3.5 32t1 44.5v31zM179 462h2q21 18 50 27.5t70 9.5q47 0 81 -12t57 -39 q25 -28 35.5 -74t10.5 -110v-42q0 -128 -53 -181q-28 -28 -67.5 -39t-97.5 -11q-48 0 -83 6t-62 23q-29 19 -45.5 51t-16.5 94v487q0 15 5.5 20t22.5 5h63q17 0 22.5 -5t5.5 -20v-190z" />
<glyph unicode="c" horiz-adv-x="445" d="M406 52q4 -14 0 -20.5t-21 -14.5q-26 -13 -65 -19.5t-80 -6.5q-44 0 -82.5 12t-61.5 33q-36 32 -46 82.5t-10 114.5v30q0 67 13.5 114t46.5 76q54 46 150 46q43 0 84 -12t70 -29q12 -8 13.5 -16t-3.5 -19l-25 -50q-4 -8 -11.5 -10.5t-17.5 3.5q-52 33 -105 33 q-43 0 -67 -21q-21 -19 -24 -48.5t-3 -74.5v-16q0 -51 4.5 -78.5t18.5 -44.5q11 -13 28.5 -20.5t48.5 -7.5q25 0 53 6t48 15q11 5 19.5 2.5t11.5 -13.5z" />
<glyph unicode="d" horiz-adv-x="524" d="M345 314q0 30 -5.5 45t-14.5 23q-11 10 -26.5 15.5t-40.5 5.5q-26 0 -43.5 -7.5t-28.5 -21.5q-16 -19 -20.5 -45t-4.5 -68v-31q0 -48 5 -74t19 -43q11 -14 27 -20t42 -6q29 0 45 5.5t27 16.5t15 29.5t4 44.5v131zM464 177q0 -54 -10.5 -85.5t-34.5 -53.5 q-25 -22 -65.5 -34.5t-99.5 -12.5q-58 0 -94.5 10.5t-60.5 31.5q-31 27 -45 73.5t-14 116.5v41q0 69 14 112t43 72q51 51 151 51q29 0 53.5 -7t41.5 -18h2v178q0 15 5.5 20t22.5 5h63q17 0 22.5 -5t5.5 -20v-475z" />
<glyph unicode="e" horiz-adv-x="475" d="M436 217q0 -16 -5.5 -22.5t-21.5 -6.5h-250q1 -59 25 -80q10 -9 31 -14.5t57 -5.5q25 0 56 6t52 15q9 4 16 2t12 -18l13 -48q3 -11 -0.5 -17t-17.5 -11q-32 -12 -69.5 -19t-75.5 -7q-61 0 -101.5 12.5t-66.5 38.5q-29 30 -40.5 75.5t-11.5 114.5v27q0 59 10.5 104 t34.5 75t63.5 45.5t97.5 15.5q51 0 84 -11.5t57 -33.5q12 -11 21.5 -25.5t16 -34.5t10 -46.5t3.5 -62.5v-68zM240 404q-38 0 -57 -20q-14 -14 -20 -40t-6 -62h147q13 0 13 14q0 33 -4 55t-15 34q-9 10 -22 14.5t-36 4.5z" />
<glyph unicode="f" horiz-adv-x="339" d="M209 25q0 -15 -5.5 -20t-22.5 -5h-63q-17 0 -22.5 5t-5.5 20v365h-51q-14 0 -19.5 4.5t-5.5 17.5v42q0 12 4 15.5t16 5.5l56 10v39q0 27 2.5 46.5t7.5 34t13 25.5t19 21q20 17 51.5 26t79.5 9q27 0 49 -3t40 -8q11 -3 14 -8t1 -16l-9 -55q-3 -19 -23 -14q-8 2 -24 4.5 t-32 2.5q-36 0 -52 -11q-10 -7 -14 -21t-4 -40v-27h93q14 0 18.5 -4.5t4.5 -17.5v-58q0 -11 -5 -15.5t-20 -4.5h-91v-365z" />
<glyph unicode="g" horiz-adv-x="525" d="M256 402q-28 0 -43.5 -5.5t-27.5 -17.5q-15 -15 -19.5 -43.5t-4.5 -79.5v-23q0 -51 4 -77.5t17 -42.5q11 -14 28.5 -19.5t41.5 -5.5q28 0 45.5 6t28.5 20q20 23 20 74v116q0 26 -4 44.5t-15 30.5q-22 23 -71 23zM346 26q-12 -14 -40.5 -24.5t-68.5 -10.5 q-104 0 -150.5 55.5t-46.5 182.5v34q0 125 48 180.5t151 55.5q45 0 78 -13t53 -36h2l6 24q2 10 7.5 13t18.5 3h37q24 0 24 -23v-460q0 -48 -10.5 -84t-34.5 -60q-26 -25 -67.5 -37.5t-102.5 -12.5q-42 0 -82 6.5t-68 17.5q-12 5 -14.5 10.5t0.5 16.5l14 45q5 14 10 17.5 t17 0.5q29 -7 60.5 -12t57.5 -5q57 0 81 24q20 21 20 70v22z" />
<glyph unicode="h" horiz-adv-x="525" d="M351 304q0 30 -4.5 48t-16.5 30q-21 21 -64 21q-26 0 -41 -4.5t-25 -13.5t-15.5 -23.5t-5.5 -45.5v-291q0 -15 -5.5 -20t-22.5 -5h-63q-17 0 -22.5 5t-5.5 20v627q0 15 5.5 20t22.5 5h63q17 0 22.5 -5t5.5 -20v-189q20 16 49 26t74 10t81.5 -15.5t60.5 -54.5 q16 -26 21 -59.5t5 -71.5v-273q0 -15 -5.5 -20t-22.5 -5h-63q-17 0 -22.5 5t-5.5 20v279z" />
<glyph unicode="i" horiz-adv-x="245" d="M195 611q0 -34 -19.5 -52t-50.5 -18h-5q-38 0 -54 18t-16 52v6q0 36 20.5 52.5t49.5 16.5h5q31 0 50.5 -16.5t19.5 -52.5v-6zM182 25q0 -15 -5.5 -20t-22.5 -5h-63q-17 0 -22.5 5t-5.5 20v440q0 15 5.5 20t22.5 5h63q17 0 22.5 -5t5.5 -20v-440z" />
<glyph unicode="j" horiz-adv-x="245" d="M196 611q0 -34 -19.5 -52t-50.5 -18h-5q-38 0 -54.5 18t-16.5 52v6q0 36 21 52.5t50 16.5h5q31 0 50.5 -16.5t19.5 -52.5v-6zM183 32q0 -51 -9 -91.5t-33 -68.5q-20 -23 -53 -36t-79 -13h-44q-13 0 -17.5 4.5t-4.5 14.5v64q0 19 20 19h15q24 0 40 4.5t26 15.5 q11 13 15.5 36t4.5 60v424q0 15 5.5 20t22.5 5h63q17 0 22.5 -5t5.5 -20v-433z" />
<glyph unicode="k" horiz-adv-x="456" d="M178 25q0 -15 -5.5 -20t-22.5 -5h-63q-17 0 -22.5 5t-5.5 20v627q0 15 5.5 20t22.5 5h63q17 0 22.5 -5t5.5 -20v-342h14q9 0 13 7l105 157q7 10 12 13t21 3h80q31 0 15 -23l-136 -197q-9 -12 0 -25l142 -219q8 -11 6 -18.5t-17 -7.5h-82q-16 0 -23 3.5t-15 17.5l-108 180 q-5 7 -13 7h-14v-183z" />
<glyph unicode="l" horiz-adv-x="285" d="M178 133q0 -18 6.5 -25.5t22.5 -7.5h30q14 0 18.5 -5t4.5 -19v-52q0 -14 -5 -19t-18 -5h-67q-32 0 -50 5.5t-32 18.5q-15 15 -22 37.5t-7 60.5v530q0 15 5.5 20t22.5 5h63q17 0 22.5 -5t5.5 -20v-519z" />
<glyph unicode="m" horiz-adv-x="806" d="M751 25q0 -15 -5.5 -20t-22.5 -5h-63q-17 0 -22.5 5t-5.5 20v279q0 29 -4 47t-15 30q-10 11 -25 16.5t-40 5.5q-51 0 -84 -38q3 -26 3 -67v-273q0 -15 -5.5 -20t-22.5 -5h-63q-17 0 -22.5 5t-5.5 20v279q0 30 -4.5 48t-16.5 30q-11 11 -25 16t-38 5q-45 0 -64 -18 q-10 -9 -15.5 -23.5t-5.5 -45.5v-291q0 -15 -5.5 -20t-22.5 -5h-63q-17 0 -22.5 5t-5.5 20v442q0 23 24 23h37q13 0 18.5 -3.5t7.5 -14.5l5 -24h3q24 24 57 37.5t75 13.5q48 0 83 -15t56 -41q67 56 150 56q86 0 128 -42q47 -46 47 -148v-284z" />
<glyph unicode="n" horiz-adv-x="525" d="M470 25q0 -15 -5.5 -20t-22.5 -5h-63q-17 0 -22.5 5t-5.5 20v279q0 30 -4.5 48t-16.5 30q-11 11 -26.5 16t-39.5 5q-45 0 -64 -18q-10 -9 -15.5 -23.5t-5.5 -45.5v-291q0 -15 -5.5 -20t-22.5 -5h-63q-17 0 -22.5 5t-5.5 20v442q0 23 24 23h37q13 0 18.5 -3.5t7.5 -14.5 l5 -24h3q21 22 52.5 36.5t83.5 14.5q54 0 91 -15.5t61 -51.5q17 -26 22 -61t5 -73v-273z" />
<glyph unicode="o" horiz-adv-x="500" d="M250 86q27 0 41.5 7t25.5 20q13 17 17.5 46.5t4.5 75.5v21q0 46 -4.5 75t-17.5 46q-11 14 -25.5 20.5t-41.5 6.5t-41.5 -6.5t-25.5 -20.5q-13 -17 -17.5 -46t-4.5 -75v-21q0 -46 4.5 -75.5t17.5 -46.5q11 -13 25.5 -20t41.5 -7zM250 499q57 0 95.5 -15t63.5 -44 q28 -32 39.5 -77.5t11.5 -102.5v-30q0 -58 -11.5 -103t-39.5 -77q-25 -28 -64 -43.5t-95 -15.5t-95 15.5t-64 43.5q-28 32 -39.5 77t-11.5 103v30q0 57 11.5 102.5t39.5 77.5q25 29 63.5 44t95.5 15z" />
<glyph unicode="p" horiz-adv-x="526" d="M179 175q0 -29 6 -44t15 -23q10 -9 26.5 -14.5t42.5 -5.5t43.5 7t28.5 21q16 19 20 45.5t4 68.5v29q0 48 -5 74t-19 43q-22 26 -72 26q-27 0 -43.5 -5.5t-27.5 -16.5t-15 -29.5t-4 -44.5v-131zM152 449h2q22 23 56 36.5t83 13.5t85 -12.5t62 -41.5q12 -14 21 -31 t14.5 -38t8 -47.5t2.5 -60.5v-38q0 -63 -12 -109t-39 -76q-24 -27 -61 -40.5t-94 -13.5q-32 0 -56.5 7t-44.5 20v-170q0 -15 -5.5 -20t-22.5 -5h-63q-17 0 -22.5 5t-5.5 20v619q0 23 24 23h37q13 0 18.5 -3t7.5 -13z" />
<glyph unicode="q" horiz-adv-x="525" d="M378 474q2 10 7.5 13t18.5 3h37q24 0 24 -23v-619q0 -15 -5.5 -20t-22.5 -5h-63q-17 0 -22.5 5t-5.5 20v178q-12 -14 -40.5 -24.5t-68.5 -10.5q-104 0 -150.5 55.5t-46.5 182.5v34q0 125 48 180.5t151 55.5q45 0 78 -13t53 -36h2zM256 402q-28 0 -43.5 -5.5t-27.5 -17.5 q-15 -15 -19.5 -43.5t-4.5 -79.5v-23q0 -51 4 -77.5t17 -42.5q11 -14 28.5 -19.5t41.5 -5.5q28 0 45.5 6t28.5 20q20 23 20 74v116q0 26 -4 44.5t-15 30.5q-22 23 -71 23z" />
<glyph unicode="r" horiz-adv-x="345" d="M152 425h2q23 34 52.5 49.5t80.5 15.5h14q16 0 22 -4.5t6 -19.5v-53q0 -13 -5.5 -18t-22.5 -5h-18q-33 0 -52 -7t-29 -18t-16.5 -28.5t-6.5 -56.5v-255q0 -15 -5.5 -20t-22.5 -5h-63q-17 0 -22.5 5t-5.5 20v442q0 23 24 23h35q13 0 18.5 -3.5t7.5 -14.5z" />
<glyph unicode="s" horiz-adv-x="433" d="M206 -9q-39 0 -80 7.5t-73 21.5q-14 5 -16.5 11t0.5 19l11 49q6 24 28 15q27 -11 60.5 -18.5t59.5 -7.5q25 0 40 2.5t25 9.5q17 11 17 39v7q0 24 -13.5 34t-44.5 18l-60 14q-36 8 -55 18.5t-33 26.5q-30 33 -30 92v9q0 41 11.5 66t32.5 42t53 25t82 8q38 0 75.5 -6 t58.5 -14q11 -4 13 -8.5t0 -15.5l-12 -56q-2 -11 -8.5 -13.5t-16.5 0.5q-17 6 -45 11t-52 5q-47 0 -62 -11q-14 -10 -14 -32v-7q0 -23 14 -31.5t37 -13.5l62 -14q72 -17 101 -54q12 -17 17 -37t5 -46v-12q0 -69 -40 -108q-48 -45 -148 -45z" />
<glyph unicode="t" horiz-adv-x="362" d="M208 490h99q13 0 17 -5.5t4 -20.5v-49q0 -13 -4 -19t-17 -6h-99v-218q0 -27 2 -39t10 -20q7 -8 17 -10.5t30 -2.5h49q16 0 20 -5.5t4 -20.5v-49q0 -14 -3.5 -19.5t-20.5 -5.5h-72q-44 0 -71 7.5t-46 24.5q-38 35 -38 120v238h-60q-11 0 -15.5 4t-4.5 15v44q0 12 3.5 15.5 t12.5 5.5l64 11v105q0 15 5.5 20t22.5 5h63q17 0 22.5 -5t5.5 -20v-100z" />
<glyph unicode="u" horiz-adv-x="510" d="M455 154q0 -51 -14 -81.5t-43 -49.5q-26 -17 -62.5 -24.5t-79.5 -7.5q-45 0 -81.5 7t-62.5 25q-28 19 -42.5 49.5t-14.5 81.5v311q0 15 5.5 20t22.5 5h63q17 0 22.5 -5t5.5 -20v-299q0 -26 5.5 -40t16.5 -22t26 -10.5t34 -2.5t34.5 2.5t25.5 10.5q11 8 15.5 22t4.5 40 v299q0 15 5.5 20t22.5 5h63q17 0 22.5 -5t5.5 -20v-311z" />
<glyph unicode="v" horiz-adv-x="464" d="M310 26q-6 -15 -15.5 -20.5t-26.5 -5.5h-71q-17 0 -26.5 5.5t-15.5 20.5q-18 45 -37.5 99t-38.5 111.5t-36.5 116.5t-31.5 114q-5 23 23 23h66q13 0 19 -5t9 -16q23 -88 49.5 -177.5t52.5 -166.5h5q27 77 53 166.5t48 177.5q3 11 9 16t19 5h66q28 0 23 -23 q-14 -55 -31.5 -114t-36.5 -116.5t-38 -111.5t-37 -99z" />
<glyph unicode="w" horiz-adv-x="681" d="M670 467q-11 -55 -25 -117.5t-28 -122.5t-28 -113t-25 -88q-5 -15 -15 -20.5t-27 -5.5h-71q-17 0 -27 5.5t-15 20.5q-21 74 -38 154.5t-28 147.5h-5q-11 -67 -28.5 -148t-37.5 -154q-5 -15 -15 -20.5t-27 -5.5h-71q-17 0 -26.5 5.5t-15.5 20.5q-11 35 -24.5 88t-28 113 t-28.5 122.5t-25 117.5q-4 23 23 23h67q25 0 28 -21q7 -41 15 -87.5t17 -92.5t18 -88.5t17 -75.5h3q17 68 34.5 151t33.5 161q4 18 11.5 23.5t30.5 5.5h63q23 0 30.5 -5.5t11.5 -23.5q16 -78 33.5 -161t34.5 -151h3q7 33 16 75.5t18 88.5t17.5 92.5t15.5 87.5q3 21 28 21h67 q27 0 23 -23z" />
<glyph unicode="x" horiz-adv-x="474" d="M460 22q5 -8 2.5 -15t-19.5 -7h-80q-16 0 -21 3.5t-11 15.5l-72 161q-10 21 -15 21h-12q-5 0 -15 -21l-74 -161q-5 -12 -10.5 -15.5t-21.5 -3.5h-80q-17 0 -19.5 7t2.5 15l117 220q5 9 0 19l-110 207q-5 8 -2.5 15t19.5 7h78q16 0 21 -3.5t11 -15.5l69 -149q5 -9 7.5 -14 t7.5 -5h12q5 0 8 5t8 14l70 149q6 12 11 15.5t21 3.5h78q17 0 19.5 -7t-2.5 -15l-114 -207q-5 -10 0 -19z" />
<glyph unicode="y" horiz-adv-x="458" d="M131 -135q16 33 31.5 66t29.5 67q-20 6 -35 20.5t-26 46.5q-28 79 -59.5 183t-60.5 219q-5 23 23 23h68q24 0 28 -21q21 -92 46 -185t53 -181h4q38 110 61.5 206t34.5 160q4 21 28 21h67q28 0 23 -23q-33 -153 -83.5 -308.5t-129.5 -327.5q-8 -18 -20 -18q-11 0 -23 5 l-49 20q-11 5 -13.5 11t2.5 16z" />
<glyph unicode="z" horiz-adv-x="413" d="M54 0q-20 0 -27 5.5t-7 21.5v23q0 13 4 23.5t17 29.5l188 287h-177q-17 0 -20.5 5.5t-3.5 18.5v51q0 14 3.5 19.5t20.5 5.5h310q13 0 17.5 -4t4.5 -17v-26q0 -15 -6 -26t-19 -31l-186 -286h205q14 0 18.5 -5.5t4.5 -19.5v-51q0 -13 -4.5 -18.5t-18.5 -5.5h-324z" />
<glyph unicode="{" horiz-adv-x="356" d="M297 6q15 0 20.5 -5t5.5 -19v-55q0 -14 -5.5 -19t-20.5 -5h-55q-58 0 -87.5 36.5t-29.5 101.5v131q0 32 -15.5 45.5t-41.5 22.5q-15 5 -19.5 11t-4.5 22v31q0 18 5 23.5t22 10.5q25 7 39.5 19.5t14.5 41.5v138q0 65 29.5 101t87.5 36h55q15 0 20.5 -5t5.5 -19v-55 q0 -14 -5.5 -19t-20.5 -5h-34q-14 0 -18 -8t-4 -40v-117q0 -82 -60 -117v-3q31 -19 45 -45.5t15 -73.5v-112q0 -32 4 -40.5t16 -8.5h36z" />
<glyph unicode="|" horiz-adv-x="245" d="M181 11q0 -20 -9.5 -25.5t-30.5 -5.5h-37q-21 0 -30.5 5.5t-9.5 25.5v629q0 20 9.5 25.5t30.5 5.5h37q21 0 30.5 -5.5t9.5 -25.5v-629z" />
<glyph unicode="}" horiz-adv-x="356" d="M100 6q12 0 16 8.5t4 40.5v112q1 47 15 73.5t45 45.5v3q-60 35 -60 117v117q0 32 -4 40t-18 8h-34q-15 0 -20.5 5t-5.5 19v55q0 14 5.5 19t20.5 5h55q58 0 87.5 -36t29.5 -101v-138q0 -29 14.5 -41.5t39.5 -19.5q17 -5 22 -10.5t5 -23.5v-31q0 -16 -4.5 -22t-19.5 -11 q-26 -9 -41.5 -22.5t-15.5 -45.5v-131q0 -65 -29.5 -101.5t-87.5 -36.5h-55q-15 0 -20.5 5t-5.5 19v55q0 14 5.5 19t20.5 5h36z" />
<glyph unicode="~" d="M229 273q-17 11 -28.5 16t-21.5 5q-15 0 -32 -13t-37 -46q-9 -15 -17 -17t-25 7l-51 27q-11 6 -11 16t8 27q19 37 39 61t40.5 37.5t41 19t41.5 5.5q30 0 51 -10.5t41 -22.5l58 -36q14 -8 23.5 -13t23.5 -5t30 16t30 42q8 15 17 18.5t26 -5.5l38 -21q19 -11 20 -19t-7 -25 q-31 -69 -70.5 -97t-83.5 -28q-29 0 -50.5 8t-40.5 20z" />
<glyph unicode="&#xa1;" horiz-adv-x="217" d="M37 0zM41 -134.962q-1 -19.999 7 -29.498t36 -9.49902h50q29 0 36 9.49902t6 29.498l-15 420.975q-1 21.998 -12 27.498t-32 5.5h-20q-22 0 -31 -5.5t-10 -26.498zM176 432.004q0 32.998 -18.5 49.9961q-18.5 16.999 -48.5 16.999h-4q-37 0 -52.5 -16.999 q-15.5 -16.998 -15.5 -49.9961v-5q0 -34.998 20 -50.4971t48 -15.499h4q30 0 48.5 15.499t18.5 50.4971v5z" />
<glyph unicode="&#xa2;" d="M448 52q4 -14 0 -20.5t-21 -14.5q-16 -7 -37.5 -12.5t-45.5 -8.5v-70q0 -11 -4 -14.5t-18 -3.5h-28q-14 0 -18 3.5t-4 14.5v65q-41 2 -76.5 13.5t-57.5 31.5q-36 32 -46 82.5t-10 114.5v30q0 67 13.5 114t46.5 76q46 40 130 45v72q0 11 4 14.5t18 3.5h28q14 0 18 -3.5 t4 -14.5v-76q29 -5 56.5 -15t48.5 -22q12 -7 13.5 -15.5t-3.5 -19.5l-25 -50q-4 -8 -11.5 -10.5t-17.5 3.5q-30 19 -61 28v-301q34 5 60 17q11 5 19.5 2.5t11.5 -13.5zM226 116q8 -9 18.5 -15.5t27.5 -9.5v306q-24 -4 -42 -19q-21 -19 -24 -48.5t-3 -74.5v-16 q0 -51 4.5 -78.5t18.5 -44.5z" />
<glyph unicode="&#xa3;" d="M448 535q-24 9 -49.5 15t-48.5 6q-51 0 -68 -21t-17 -73v-86h153q20 0 23.5 -6.5t3.5 -29.5v-29q0 -23 -3.5 -29t-23.5 -6h-154v-39q0 -39 -12.5 -72.5t-40.5 -64.5h261q17 0 22 -6t5 -28v-37q0 -19 -4.5 -24t-21.5 -5h-400q-17 0 -22 6t-5 20v32q0 14 4 20t19 16 q37 25 53.5 55t16.5 78v49h-48q-18 0 -22 4.5t-4 20.5v31q0 19 4.5 24.5t18.5 7.5l51 8v94q0 99 44.5 144.5t144.5 45.5q37 0 75.5 -7t69.5 -18q13 -5 16.5 -12t-1.5 -22l-13 -46q-4 -14 -10 -17.5t-17 1.5z" />
<glyph unicode="&#xa4;" horiz-adv-x="545" d="M366 116q-41 -22 -94 -22q-51 0 -93 22l-64 -62q-10 -9 -17 -8.5t-15 8.5l-48 49q-9 9 -9.5 15.5t9.5 17.5l62 61q-22 42 -22 94q0 51 23 94l-63 62q-10 11 -9.5 17.5t9.5 15.5l48 49q8 8 15 8.5t17 -8.5l65 -63q42 22 92 22q49 0 93 -22l65 63q10 9 17 8.5t15 -8.5 l48 -49q9 -9 9.5 -15.5t-9.5 -17.5l-64 -63q23 -41 23 -93t-22 -94l63 -61q10 -11 9.5 -17.5t-9.5 -15.5l-48 -49q-8 -8 -15 -8.5t-17 8.5zM186 291q0 -39 25 -62.5t61 -23.5t61 23.5t25 62.5t-25 62.5t-61 23.5t-61 -23.5t-25 -62.5z" />
<glyph unicode="&#xa5;" d="M332 163h105q20 0 23.5 -7.5t3.5 -29.5v-17q0 -21 -3.5 -28t-23.5 -7h-105v-45q0 -17 -6 -23t-23 -6h-68q-17 0 -23 6t-6 23v45h-104q-20 0 -23.5 7t-3.5 28v17q0 22 3.5 29.5t23.5 7.5h104v46h-104q-20 0 -23.5 7t-3.5 28v19q0 22 3.5 29.5t23.5 7.5h56 q-74 150 -124 322q-7 25 25 25h69q16 0 22.5 -4.5t10.5 -20.5q7 -34 19 -75t26.5 -83.5t29.5 -84.5t30 -77h7q15 35 30 76.5t29.5 84.5t26 84t19.5 75q4 16 10.5 20.5t22.5 4.5h69q32 0 25 -25q-51 -174 -124 -322h56q20 0 23.5 -7.5t3.5 -29.5v-19q0 -21 -3.5 -28t-23.5 -7 h-104q-1 -1 -1 -2v-44z" />
<glyph unicode="&#xa6;" horiz-adv-x="245" d="M181 440q0 -39 -44 -39h-29q-44 0 -44 39v207q0 39 44 39h29q44 0 44 -39v-207zM181 19q0 -39 -44 -39h-29q-44 0 -44 39v207q0 39 44 39h29q44 0 44 -39v-207z" />
<glyph unicode="&#xa7;" horiz-adv-x="440" d="M181 370q-18 -15 -18 -41v-5q0 -17 9.5 -26.5t32.5 -14.5l51 -11q9 6 15 18.5t6 26.5v6q0 14 -10 23t-36 14zM327 529q-25 8 -50 12t-46 4q-20 0 -32 -2t-19 -5q-16 -7 -16 -30v-5q0 -15 10 -23.5t35 -13.5l59 -11q65 -12 96 -35t31 -77v-8q0 -24 -13 -50t-37 -44 q49 -28 49 -103v-8q0 -65 -46 -102q-25 -19 -58.5 -28t-84.5 -9q-36 0 -75.5 8.5t-64.5 18.5q-14 5 -16.5 11t0.5 19l11 49q6 22 28 15q27 -10 60 -17t57 -7q27 0 41 3t22 10q10 9 10 28v6q0 17 -13 26.5t-39 14.5l-51 11q-64 14 -97 39.5t-33 81.5v8q0 28 12 49.5t33 36.5 q-22 16 -32.5 39.5t-10.5 61.5v8q0 37 17 64t45 41q49 24 116 24q35 0 68.5 -5t57.5 -13q11 -4 13 -8.5t0 -15.5l-12 -56q-2 -11 -8.5 -13.5t-16.5 0.5z" />
<glyph unicode="&#xa8;" horiz-adv-x="370" d="M108 693q25 0 40 -13t15 -36v-24q0 -25 -15 -37t-40 -12h-10q-24 0 -38.5 12t-14.5 37v24q0 23 14.5 36t38.5 13h10zM271 693q26 0 40 -13t14 -36v-24q0 -25 -14 -37t-40 -12h-9q-24 0 -38.5 12t-14.5 37v24q0 23 14.5 36t38.5 13h9z" />
<glyph unicode="&#xa9;" horiz-adv-x="826" d="M533 210q4 -13 -0.5 -19t-21.5 -12q-20 -8 -44 -12.5t-47 -4.5q-153 0 -153 145v77q0 81 35.5 116t112.5 35q35 0 61.5 -6.5t46.5 -17.5q10 -5 12 -11.5t-3 -19.5l-12 -33q-5 -13 -12.5 -14.5t-18.5 4.5q-13 7 -26.5 11t-29.5 4q-32 0 -43.5 -14.5t-11.5 -52.5v-80 q0 -11 1.5 -21.5t7.5 -18.5t17 -13.5t30 -5.5t33.5 3.5t27.5 8.5q11 4 17 1.5t9 -13.5zM412 90q63 0 110 20t78.5 54.5t47 81t15.5 100.5q0 55 -15.5 103t-47 82.5t-78.5 54.5t-110 20t-110 -20t-78.5 -54.5t-47 -82.5t-15.5 -103q0 -54 15.5 -100.5t47 -81t78.5 -54.5 t110 -20zM412 -14q-87 0 -156 27.5t-117 76t-73.5 114.5t-25.5 144t25.5 144t73.5 114.5t117 76t156 27.5t156 -27.5t117 -76t73.5 -114.5t25.5 -144t-25.5 -144t-73.5 -114.5t-117 -76t-156 -27.5z" />
<glyph unicode="&#xaa;" horiz-adv-x="322" d="M203 417q-8 1 -17.5 1.5t-18.5 0.5h-22q-22 0 -31 -7q-10 -8 -10 -29v-2q0 -20 10 -27q4 -3 9.5 -5t15.5 -2h16q48 0 48 45v25zM212 316q-9 -15 -25.5 -23.5t-42.5 -8.5h-22q-26 0 -42.5 4.5t-28.5 15.5q-27 24 -27 72v12q0 51 26 73q28 24 95 24h23q8 0 17.5 -0.5 t17.5 -1.5v11q0 17 -10 27q-12 9 -44 9q-17 0 -37 -3t-38 -8q-15 -5 -18 9l-8 42q-3 15 13 20q20 7 48 11t54 4q27 0 50 -5t39 -16q17 -12 25.5 -30.5t8.5 -51.5v-200q0 -12 -12 -12h-44q-8 0 -10 2t-4 8l-3 16h-1z" />
<glyph unicode="&#xab;" horiz-adv-x="578" d="M20 47zM532 133q18 -16 15.5 -27.5t-16.5 -24.5l-24 -21q-14 -13 -25.5 -12t-29.5 15l-154 127q-11 9 -15 18t-4 21v8q0 23 19 39l154 126q17 14 29 15.5t26 -11.5l24 -21q17 -15 16 -26.5t-15 -23.5l-110 -102zM273 133q18 -16 15.5 -27.5t-16.5 -24.5l-24 -21 q-14 -13 -25.5 -12t-29.5 15l-154 127q-11 9 -15 18t-4 21v8q0 23 19 39l154 126q17 14 29 15.5t26 -11.5l24 -21q17 -15 16 -26.5t-15 -23.5l-110 -102z" />
<glyph unicode="&#xac;" d="M430 37q-26 0 -33.5 6t-7.5 23v138h-321q-26 0 -31 9.5t-5 27.5v36q0 17 5 27t31 10h398q19 0 30.5 -9t11.5 -28v-211q0 -17 -9.5 -23t-32.5 -6h-36v0z" />
<glyph unicode="&#xad;" horiz-adv-x="333" d="M33 205zM262 313q26 0 32 -10t6 -27v-36q0 -26 -12.5 -30.5t-25.5 -4.5h-191q-26 0 -32 9.5t-6 27.5v34q0 17 6 27t32 10h191z" />
<glyph unicode="&#xae;" horiz-adv-x="826" d="M389 196q0 -14 -7 -21t-25 -7h-38q-18 0 -25 7t-7 21v298q0 15 7.5 24t25.5 11q17 2 37.5 2.5t45.5 0.5q29 0 56.5 -5.5t49 -19t34.5 -36t13 -55.5v-8q0 -57 -36 -85q-5 -5 -13.5 -10t-17.5 -9l72 -109q16 -27 -22 -27h-52q-12 0 -19.5 3.5t-14.5 15.5l-59 104h-5v-95z M412 451h-12t-11 -1v-84h17q26 0 36 10q9 9 9 33v7q0 35 -39 35zM412 90q63 0 110 20t78.5 54.5t47 81t15.5 100.5q0 55 -15.5 103t-47 82.5t-78.5 54.5t-110 20t-110 -20t-78.5 -54.5t-47 -82.5t-15.5 -103q0 -54 15.5 -100.5t47 -81t78.5 -54.5t110 -20zM412 -14 q-87 0 -156 27.5t-117 76t-73.5 114.5t-25.5 144t25.5 144t73.5 114.5t117 76t156 27.5t156 -27.5t117 -76t73.5 -114.5t25.5 -144t-25.5 -144t-73.5 -114.5t-117 -76t-156 -27.5z" />
<glyph unicode="&#xaf;" horiz-adv-x="370" d="M293 662q15 0 19.5 -6.5t4.5 -17.5v-37q0 -17 -8 -19.5t-16 -2.5h-216q-14 0 -19 6t-5 18v35q0 11 5 17.5t19 6.5h216z" />
<glyph unicode="&#xb0;" horiz-adv-x="369" d="M35 600q0 31 12 59t32.5 48t47 32t56.5 12q31 0 59 -12t48 -32t32 -48t12 -59q0 -30 -12 -56.5t-32 -47t-48 -32.5t-59 -12q-30 0 -56.5 12t-47 32.5t-32.5 47t-12 56.5zM139 600q0 -20 13 -33.5t31 -13.5q20 0 33 13.5t13 33.5q0 22 -13 35.5t-33 13.5q-18 0 -31 -13.5 t-13 -35.5z" />
<glyph unicode="&#xb1;" d="M329 447h143q25 0 30.5 -10t5.5 -27v-38q0 -26 -12 -30.5t-24 -4.5h-143v-130q0 -19 -11.5 -25.5t-31.5 -6.5h-36q-20 0 -29.5 6.5t-9.5 25.5v130h-143q-26 0 -31 9.5t-5 27.5v36q0 17 5 27t31 10h143v137q0 23 10 28.5t32 5.5h33q19 0 31 -5.5t12 -28.5v-137zM68 0 q-26 0 -31 9.5t-5 27.5v36q0 17 5 27t31 10h404q25 0 30.5 -10t5.5 -27v-38q0 -26 -12 -30.5t-24 -4.5h-404z" />
<glyph unicode="&#xb2;" horiz-adv-x="400" d="M114 711q-11 -4 -15.5 -0.5t-8.5 19.5l-8 35q-3 14 -1 21t13 11q20 8 51.5 13t63.5 5q60 0 91.5 -28t31.5 -82v-6q0 -42 -17.5 -67t-62.5 -48l-49 -24q-23 -11 -28.5 -19.5t-5.5 -19.5v-6h134q14 0 19 -4.5t5 -20.5v-37q0 -14 -5 -20t-19 -6h-206q-18 0 -24 5.5t-6 22.5 v39q0 49 18 81.5t58 52.5l49 24q22 11 31 19.5t9 23.5v3q0 26 -41 26q-20 0 -42.5 -4t-34.5 -9z" />
<glyph unicode="&#xb3;" horiz-adv-x="400" d="M74 506q3 14 8.5 17t16.5 -1q8 -3 19 -6t23 -5.5t23.5 -4t20.5 -1.5q26 0 37.5 8.5t11.5 24.5v4q0 19 -7 27.5t-31 8.5h-38q-14 0 -17 7t-3 21v26q0 14 3 21.5t17 7.5h28q28 0 36.5 9.5t8.5 24.5v4q0 11 -9.5 18t-32.5 7q-15 0 -34 -3.5t-35 -8.5q-14 -5 -18.5 -2 t-8.5 19l-9 35q-4 14 -1.5 19.5t15.5 10.5q21 8 53.5 13.5t58.5 5.5q58 0 89.5 -24t31.5 -75v-8q0 -26 -10.5 -49t-33.5 -35v-3q22 -10 35.5 -28t13.5 -46v-8q0 -61 -35 -90t-101 -29q-15 0 -31.5 1.5t-33 4.5t-31.5 7t-25 8q-12 5 -14.5 11t0.5 18z" />
<glyph unicode="&#xb4;" horiz-adv-x="370" d="M231 719q11 8 17.5 6.5t13.5 -11.5l35 -50q8 -12 7 -19t-15 -15l-162 -89q-11 -7 -20.5 -4.5t-15.5 11.5l-21 29q-14 21 1 31z" />
<glyph unicode="&#xb6;" horiz-adv-x="623" d="M513 -81q0 -15 -5.5 -20t-22.5 -5h-60q-17 0 -22.5 5t-5.5 20v651h-62v-651q0 -15 -5.5 -20t-22.5 -5h-67q-17 0 -22.5 5t-5.5 20v379q-36 4 -67 20.5t-53 41t-34.5 56t-12.5 67.5q0 39 15.5 73t43 59.5t66 40t85.5 14.5h310q14 0 18 -5t4 -18v-56q0 -11 -4 -16t-18 -5 h-52v-651z" />
<glyph unicode="&#xb7;" horiz-adv-x="210" d="M174 282q0 -32 -17 -48t-46 -16h-11q-35 0 -49.5 16t-14.5 48v16q0 35 18.5 49t45.5 14h11q29 0 46 -14t17 -49v-16z" />
<glyph unicode="&#xb8;" horiz-adv-x="370" d="M178 -58q8 2 14.5 2.5t16.5 0.5q31 0 56 -20t25 -64q0 -53 -31 -76t-87 -23q-20 0 -44 3.5t-41 8.5q-9 3 -12 7t-1 14l5 32q2 8 5.5 11t12.5 0q11 -4 27.5 -7t35.5 -3q22 0 32 6t10 22q0 14 -7 20t-26 6q-10 0 -17.5 -1t-17.5 -3q-14 -3 -22 8l-8 12q-5 9 -4 18l17 77 q2 10 13 10h48q12 0 10 -10z" />
<glyph unicode="&#xb9;" horiz-adv-x="400" d="M100 427q-15 0 -21 6t-6 21v35q0 14 6 20t21 6h63v184h-4l-49 -30q-19 -12 -30 6l-22 37q-7 11 -5 17t12 13l79 50q15 10 23 12t26 2h34q21 0 27.5 -5.5t6.5 -24.5v-261h56q17 0 21.5 -6t4.5 -21v-35q0 -14 -4.5 -20t-21.5 -6h-217z" />
<glyph unicode="&#xba;" horiz-adv-x="324" d="M114 441q0 -48 11 -65t37 -17t36.5 17t10.5 65v6q0 48 -10.5 65.5t-36.5 17.5t-37 -17.5t-11 -65.5v-6zM296 433q0 -78 -31 -113.5t-103 -35.5t-103 35.5t-31 113.5v24q0 79 31 113.5t103 34.5t103 -34.5t31 -113.5v-24z" />
<glyph unicode="&#xbb;" horiz-adv-x="568" d="M28 47zM295.017 133q-17.999 -16 -15.499 -27.5t16.499 -24.5l23.999 -21q13.999 -13 25.498 -12t29.498 15l153.99 127q11 9 15 18q3.99902 9 3.99902 21v8q0 23 -18.999 39l-153.99 126q-16.999 14 -28.998 15.5t-25.998 -11.5l-23.999 -21q-16.999 -15 -15.999 -26.5 t14.999 -23.5l109.993 -102zM46.0166 133q-17.999 -16 -15.499 -27.5t16.499 -24.5l23.999 -21q13.999 -13 25.498 -12t29.498 15l153.99 127q11 9 15 18q3.99902 9 3.99902 21v8q0 23 -18.999 39l-153.99 126q-16.999 14 -28.998 15.5t-25.998 -11.5l-23.999 -21 q-16.999 -15 -15.999 -26.5t14.999 -23.5l109.993 -102z" />
<glyph unicode="&#xbc;" horiz-adv-x="890" d="M798 82v-63q0 -19 -22 -19h-54q-22 0 -22 19v63h-147q-14 0 -19 4t-5 17v28q0 7 3.5 14.5t11.5 20.5l118 188q9 14 18.5 19.5t26.5 5.5h63q17 0 22.5 -6t5.5 -22v-191h29q11 0 14.5 -5.5t3.5 -16.5v-33q0 -8 -3.5 -15.5t-14.5 -7.5h-29zM621 160h79v123h-3zM592 636 q7 11 14.5 15.5t24.5 4.5h59q23 0 28 -7t-5 -24l-374 -614q-7 -11 -14.5 -15.5t-24.5 -4.5h-65q-17 0 -22 7.5t5 23.5zM77 268q-15 0 -21 6t-6 21v35q0 14 6 20t21 6h63v184h-4l-49 -30q-19 -12 -30 6l-22 37q-7 11 -5 17t12 13l79 50q15 10 23 12t26 2h34q21 0 27.5 -5.5 t6.5 -24.5v-261h56q17 0 21.5 -6t4.5 -21v-35q0 -14 -4.5 -20t-21.5 -6h-217z" />
<glyph unicode="&#xbd;" horiz-adv-x="890" d="M29 0zM638 285q-11 -4 -15.5 -0.5t-8.5 19.5l-8 35q-3 14 -1 21t13 11q20 8 51.5 13t63.5 5q60 0 91.5 -28t31.5 -82v-6q0 -42 -17.5 -67t-62.5 -48l-49 -24q-23 -11 -28.5 -19.5t-5.5 -19.5v-6h134q14 0 19 -4.5t5 -20.5v-37q0 -14 -5 -20t-19 -6h-206q-18 0 -24 5.5 t-6 22.5v39q0 49 18 81.5t58 52.5l49 24q22 11 31 19.5t9 23.5v3q0 26 -41 26q-20 0 -42.5 -4t-34.5 -9zM592 636q7 11 14.5 15.5t24.5 4.5h59q23 0 28 -7t-5 -24l-374 -614q-7 -11 -14.5 -15.5t-24.5 -4.5h-65q-17 0 -22 7.5t5 23.5zM78 269q-15 0 -21 6t-6 21v35 q0 14 6 20t21 6h63v184h-4l-49 -30q-19 -12 -30 6l-22 37q-7 11 -5 17t12 13l79 50q15 10 23 12t26 2h34q21 0 27.5 -5.5t6.5 -24.5v-261h56q17 0 21.5 -6t4.5 -21v-35q0 -14 -4.5 -20t-21.5 -6h-217z" />
<glyph unicode="&#xbe;" horiz-adv-x="890" d="M798 82v-63q0 -19 -22 -19h-54q-22 0 -22 19v63h-147q-14 0 -19 4t-5 17v28q0 7 3.5 14.5t11.5 20.5l118 188q9 14 18.5 19.5t26.5 5.5h63q17 0 22.5 -6t5.5 -22v-191h29q11 0 14.5 -5.5t3.5 -16.5v-33q0 -8 -3.5 -15.5t-14.5 -7.5h-29zM621 160h79v123h-3zM592 636 q7 11 14.5 15.5t24.5 4.5h59q23 0 28 -7t-5 -24l-374 -614q-7 -11 -14.5 -15.5t-24.5 -4.5h-65q-17 0 -22 7.5t5 23.5zM65 349q3 14 8.5 17t16.5 -1q8 -3 19 -6t23 -5.5t23.5 -4t20.5 -1.5q26 0 37.5 8.5t11.5 24.5v4q0 19 -7 27.5t-31 8.5h-38q-14 0 -17 7t-3 21v26 q0 14 3 21.5t17 7.5h28q28 0 36.5 9.5t8.5 24.5v4q0 11 -9.5 18t-32.5 7q-15 0 -34 -3.5t-35 -8.5q-14 -5 -18.5 -2t-8.5 19l-9 35q-4 14 -1.5 19.5t15.5 10.5q21 8 53.5 13.5t58.5 5.5q58 0 89.5 -24t31.5 -75v-8q0 -26 -10.5 -49t-33.5 -35v-3q22 -10 35.5 -28t13.5 -46 v-8q0 -61 -35 -90t-101 -29q-15 0 -31.5 1.5t-33 4.5t-31.5 7t-25 8q-12 5 -14.5 11t0.5 18z" />
<glyph unicode="&#xbf;" horiz-adv-x="445" d="M32 0zM231.013 298.012q0 19.999 24.999 19.999h54.9961q21.999 0 21.999 -19.999q0 -31.998 -0.5 -52.9971q-0.5 -20.998 -8.49902 -38.9971q-11 -22.999 -28.999 -37.998t-41.9971 -30.998l-31.998 -20.999q-35.998 -22.998 -50.9971 -45.4971 q-14.999 -22.498 -14.999 -55.4961v-11q0 -36.9971 20.999 -54.9961q11.999 -10 28.498 -13.499q16.499 -3.5 39.498 -3.5q29.998 0 62.9961 7.99902q32.998 8 61.9961 18.999q23.998 9 31.998 -13.999l12.999 -42.9971q4 -13.999 -0.5 -20.999t-15.499 -11.999 q-31.998 -13.999 -77.9951 -24.499q-45.9971 -10.499 -91.9941 -10.499q-89.9951 0 -142.992 39.498q-52.9961 39.4971 -52.9961 122.492v12.999q0 53.9971 26.498 93.9941q26.498 39.998 74.4961 71.9961l30.998 20.998q16.998 11 31.998 21.499 q14.999 10.499 25.998 21.499q7.99902 8.99902 8.49902 24.998t0.5 33.998zM213.014 432.004q0 32.998 18.499 49.9961q18.499 16.999 48.4971 16.999h4q36.998 0 52.4971 -16.999q15.499 -16.998 15.499 -49.9961v-5q0 -34.998 -19.999 -50.4971t-47.9971 -15.499h-4 q-29.998 0 -48.4971 15.499t-18.499 50.4971v5z" />
<glyph unicode="&#xc0;" horiz-adv-x="569" d="M2 0zM279 519q-20 -64 -39 -131l-38 -134h166l-38 134t-39 131h-12zM140 26q-5 -17 -14 -21.5t-29 -4.5h-53q-21 0 -31.5 3t-5.5 23q21 76 45 155t48.5 155t48.5 146t45 129q8 23 21.5 29.5t44.5 6.5h49q31 0 45.5 -6.5t22.5 -29.5q21 -59 45 -129t48 -146t47.5 -155 t44.5 -155q5 -20 -5 -23t-31 -3h-53q-20 0 -29 4.5t-14 21.5l-33 123h-224zM380 772q8 -5 9 -11.5t-5 -18.5l-18 -31q-5 -10 -14 -13.5t-21 2.5l-170 71q-14 7 -16.5 13.5t4.5 19.5l29 53q6 11 12.5 13t18.5 -5z" />
<glyph unicode="&#xc1;" horiz-adv-x="569" d="M2 0zM279 519q-20 -64 -39 -131l-38 -134h166l-38 134t-39 131h-12zM140 26q-5 -17 -14 -21.5t-29 -4.5h-53q-21 0 -31.5 3t-5.5 23q21 76 45 155t48.5 155t48.5 146t45 129q8 23 21.5 29.5t44.5 6.5h49q31 0 45.5 -6.5t22.5 -29.5q21 -59 45 -129t48 -146t47.5 -155 t44.5 -155q5 -20 -5 -23t-31 -3h-53q-20 0 -29 4.5t-14 21.5l-33 123h-224zM364 865q12 7 18.5 5t12.5 -13l29 -53q7 -13 4.5 -20t-16.5 -13l-170 -71q-13 -5 -21.5 -1.5t-13.5 12.5l-18 31q-7 11 -5.5 18t9.5 12z" />
<glyph unicode="&#xc2;" horiz-adv-x="569" d="M2 0zM279 519q-20 -64 -39 -131l-38 -134h166l-38 134t-39 131h-12zM140 26q-5 -17 -14 -21.5t-29 -4.5h-53q-21 0 -31.5 3t-5.5 23q21 76 45 155t48.5 155t48.5 146t45 129q8 23 21.5 29.5t44.5 6.5h49q31 0 45.5 -6.5t22.5 -29.5q21 -59 45 -129t48 -146t47.5 -155 t44.5 -155q5 -20 -5 -23t-31 -3h-53q-20 0 -29 4.5t-14 21.5l-33 123h-224zM429 761q8 -8 6 -16t-8 -13l-28 -21q-8 -7 -16 -7t-18 9l-81 78h-3l-78 -78q-9 -10 -17.5 -9.5t-16.5 7.5l-28 21q-6 5 -8 13t6 16l91 109q6 8 12 9.5t13 1.5h57q6 0 12 -1.5t13 -9.5z" />
<glyph unicode="&#xc3;" horiz-adv-x="569" d="M2 0zM279 519q-20 -64 -39 -131l-38 -134h166l-38 134t-39 131h-12zM140 26q-5 -17 -14 -21.5t-29 -4.5h-53q-21 0 -31.5 3t-5.5 23q21 76 45 155t48.5 155t48.5 146t45 129q8 23 21.5 29.5t44.5 6.5h49q31 0 45.5 -6.5t22.5 -29.5q21 -59 45 -129t48 -146t47.5 -155 t44.5 -155q5 -20 -5 -23t-31 -3h-53q-20 0 -29 4.5t-14 21.5l-33 123h-224zM127 730q-8 5 -9.5 11.5t3.5 17.5q38 84 102 84q20 0 33.5 -5t27.5 -14l27 -17q11 -7 19 -10.5t16 -3.5q10 0 20.5 8t22.5 27q5 8 12.5 8t15.5 -5l22 -15q9 -6 10.5 -12t-3.5 -17 q-22 -39 -49.5 -59t-56.5 -20q-17 0 -31.5 5t-28.5 14l-27 18q-9 6 -15.5 9t-14.5 3q-9 0 -19.5 -7.5t-23.5 -28.5q-6 -10 -12 -11t-16 5z" />
<glyph unicode="&#xc4;" horiz-adv-x="569" d="M2 0zM279 519q-20 -64 -39 -131l-38 -134h166l-38 134t-39 131h-12zM140 26q-5 -17 -14 -21.5t-29 -4.5h-53q-21 0 -31.5 3t-5.5 23q21 76 45 155t48.5 155t48.5 146t45 129q8 23 21.5 29.5t44.5 6.5h49q31 0 45.5 -6.5t22.5 -29.5q21 -59 45 -129t48 -146t47.5 -155 t44.5 -155q5 -20 -5 -23t-31 -3h-53q-20 0 -29 4.5t-14 21.5l-33 123h-224zM207 847q25 0 40 -13t15 -36v-24q0 -25 -15 -37t-40 -12h-10q-24 0 -38.5 12t-14.5 37v24q0 23 14.5 36t38.5 13h10zM370 847q26 0 40 -13t14 -36v-24q0 -25 -14 -37t-40 -12h-9q-24 0 -38.5 12 t-14.5 37v24q0 23 14.5 36t38.5 13h9z" />
<glyph unicode="&#xc5;" horiz-adv-x="569" d="M2 0zM279 519q-20 -64 -39 -131l-38 -134h166l-38 134t-39 131h-12zM140 26q-5 -17 -14 -21.5t-29 -4.5h-53q-21 0 -31.5 3t-5.5 23q21 76 45 155t48.5 155t48.5 146t45 129q8 23 21.5 29.5t44.5 6.5h49q31 0 45.5 -6.5t22.5 -29.5q21 -59 45 -129t48 -146t47.5 -155 t44.5 -155q5 -20 -5 -23t-31 -3h-53q-20 0 -29 4.5t-14 21.5l-33 123h-224zM187 774q0 41 28 69t69 28q42 0 69.5 -28t27.5 -69q0 -42 -27.5 -69.5t-69.5 -27.5q-41 0 -69 27.5t-28 69.5zM252 774q0 -14 9 -23.5t23 -9.5t23.5 9.5t9.5 23.5t-9.5 23t-23.5 9t-23 -9t-9 -23z " />
<glyph unicode="&#xc6;" horiz-adv-x="837" d="M523 282v-151q0 -17 8 -22.5t24 -5.5h216q17 0 21.5 -5t4.5 -19v-55q0 -14 -4.5 -19t-21.5 -5h-229q-38 0 -64 5t-43 19t-26 35.5t-9 56.5v33h-198l-59 -123q-8 -17 -18 -21.5t-30 -4.5h-53q-21 0 -31 3t-1 23q37 76 76 153t77.5 152t76 145.5t72.5 134.5q13 23 28 29.5 t46 6.5h386q17 0 21 -5t4 -19v-55q0 -14 -4 -19t-21 -5h-249v-159h216q17 0 21 -5t4 -19v-55q0 -14 -4 -19t-21 -5h-216zM391 545q-17 -32 -34 -69t-35 -75t-35.5 -76t-33.5 -71h147v291h-9z" />
<glyph unicode="&#xc7;" horiz-adv-x="533" d="M310 656q48 0 95 -11.5t84 -33.5q8 -5 10 -11t-3 -18l-24 -60q-5 -11 -14 -11t-18 5q-32 17 -65 26.5t-65 9.5q-37 0 -58 -7.5t-37 -23.5q-23 -23 -30.5 -68t-7.5 -120v-18q0 -78 8 -119.5t26 -63.5q31 -37 112 -37q32 0 66 7.5t62 19.5q24 10 30 -16l12 -48 q3 -14 0 -21.5t-21 -14.5q-35 -14 -74 -22t-81 -9l-9 -49q8 2 14.5 2.5t16.5 0.5q31 0 56 -20t25 -64q0 -53 -31 -76t-87 -23q-20 0 -44 3.5t-41 8.5q-9 3 -12 7t-1 14l5 32q2 8 5.5 11t12.5 0q11 -4 27.5 -7t35.5 -3q22 0 32 6t10 22q0 14 -7 20t-26 6q-10 0 -17.5 -1 t-17.5 -3q-14 -3 -22 8l-8 12q-5 9 -4 18l17 77v1q-45 5 -77 18t-56 37q-36 36 -51 96t-15 158v40q0 52 4.5 93t14.5 72.5t26.5 56t41.5 44.5q60 47 175 47z" />
<glyph unicode="&#xc8;" horiz-adv-x="498" d="M52 0zM176 282q0 -41 1.5 -77t5.5 -74q2 -17 9 -22.5t23 -5.5h217q17 0 21.5 -5t4.5 -19v-55q0 -14 -4.5 -19t-21.5 -5h-229q-38 0 -64 5t-43 19t-23.5 35.5t-11.5 56.5q-5 40 -7 90.5t-2 96.5v41q0 44 2 95.5t7 91.5q4 37 13 58.5t26 35.5t42.5 18t60.5 4h230 q17 0 21 -5t4 -19v-55q0 -14 -4 -19t-21 -5h-218q-14 0 -22.5 -6.5t-10.5 -23.5q-2 -26 -4 -59t-2 -70h224q17 0 21 -5t4 -19v-55q0 -14 -4 -19t-21 -5h-224zM389 772q8 -5 9 -11.5t-5 -18.5l-18 -31q-5 -10 -14 -13.5t-21 2.5l-170 71q-14 7 -16.5 13.5t4.5 19.5l29 53 q6 11 12.5 13t18.5 -5z" />
<glyph unicode="&#xc9;" horiz-adv-x="498" d="M52 0zM176 282q0 -41 1.5 -77t5.5 -74q2 -17 9 -22.5t23 -5.5h217q17 0 21.5 -5t4.5 -19v-55q0 -14 -4.5 -19t-21.5 -5h-229q-38 0 -64 5t-43 19t-23.5 35.5t-11.5 56.5q-5 40 -7 90.5t-2 96.5v41q0 44 2 95.5t7 91.5q4 37 13 58.5t26 35.5t42.5 18t60.5 4h230 q17 0 21 -5t4 -19v-55q0 -14 -4 -19t-21 -5h-218q-14 0 -22.5 -6.5t-10.5 -23.5q-2 -26 -4 -59t-2 -70h224q17 0 21 -5t4 -19v-55q0 -14 -4 -19t-21 -5h-224zM362 865q12 7 18.5 5t12.5 -13l29 -53q7 -13 4.5 -20t-16.5 -13l-170 -71q-13 -5 -21.5 -1.5t-13.5 12.5l-18 31 q-7 11 -5.5 18t9.5 12z" />
<glyph unicode="&#xca;" horiz-adv-x="498" d="M52 0zM176 282q0 -41 1.5 -77t5.5 -74q2 -17 9 -22.5t23 -5.5h217q17 0 21.5 -5t4.5 -19v-55q0 -14 -4.5 -19t-21.5 -5h-229q-38 0 -64 5t-43 19t-23.5 35.5t-11.5 56.5q-5 40 -7 90.5t-2 96.5v41q0 44 2 95.5t7 91.5q4 37 13 58.5t26 35.5t42.5 18t60.5 4h230 q17 0 21 -5t4 -19v-55q0 -14 -4 -19t-21 -5h-218q-14 0 -22.5 -6.5t-10.5 -23.5q-2 -26 -4 -59t-2 -70h224q17 0 21 -5t4 -19v-55q0 -14 -4 -19t-21 -5h-224zM431 761q8 -8 6 -16t-8 -13l-28 -21q-8 -7 -16 -7t-18 9l-81 78h-3l-78 -78q-9 -10 -17.5 -9.5t-16.5 7.5l-28 21 q-6 5 -8 13t6 16l91 109q6 8 12 9.5t13 1.5h57q6 0 12 -1.5t13 -9.5z" />
<glyph unicode="&#xcb;" horiz-adv-x="498" d="M52 0zM176 282q0 -41 1.5 -77t5.5 -74q2 -17 9 -22.5t23 -5.5h217q17 0 21.5 -5t4.5 -19v-55q0 -14 -4.5 -19t-21.5 -5h-229q-38 0 -64 5t-43 19t-23.5 35.5t-11.5 56.5q-5 40 -7 90.5t-2 96.5v41q0 44 2 95.5t7 91.5q4 37 13 58.5t26 35.5t42.5 18t60.5 4h230 q17 0 21 -5t4 -19v-55q0 -14 -4 -19t-21 -5h-218q-14 0 -22.5 -6.5t-10.5 -23.5q-2 -26 -4 -59t-2 -70h224q17 0 21 -5t4 -19v-55q0 -14 -4 -19t-21 -5h-224zM204 847q25 0 40 -13t15 -36v-24q0 -25 -15 -37t-40 -12h-10q-24 0 -38.5 12t-14.5 37v24q0 23 14.5 36t38.5 13 h10zM367 847q26 0 40 -13t14 -36v-24q0 -25 -14 -37t-40 -12h-9q-24 0 -38.5 12t-14.5 37v24q0 23 14.5 36t38.5 13h9z" />
<glyph unicode="&#xcc;" horiz-adv-x="269" d="M0 0zM198 25q0 -16 -5 -20.5t-22 -4.5h-72q-17 0 -22 4.5t-5 20.5v597q0 16 5 20.5t22 4.5h72q17 0 22 -4.5t5 -20.5v-597zM215 772q8 -5 9 -11.5t-5 -18.5l-18 -31q-5 -10 -14 -13.5t-21 2.5l-170 71q-14 7 -16.5 13.5t4.5 19.5l29 53q6 11 12.5 13t18.5 -5z" />
<glyph unicode="&#xcd;" horiz-adv-x="269" d="M43 0zM198 25q0 -16 -5 -20.5t-22 -4.5h-72q-17 0 -22 4.5t-5 20.5v597q0 16 5 20.5t22 4.5h72q17 0 22 -4.5t5 -20.5v-597zM225 865q12 7 18.5 5t12.5 -13l29 -53q7 -13 4.5 -20t-16.5 -13l-170 -71q-13 -5 -21.5 -1.5t-13.5 12.5l-18 31q-7 11 -5.5 18t9.5 12z" />
<glyph unicode="&#xce;" horiz-adv-x="269" d="M0 0zM198 25q0 -16 -5 -20.5t-22 -4.5h-72q-17 0 -22 4.5t-5 20.5v597q0 16 5 20.5t22 4.5h72q17 0 22 -4.5t5 -20.5v-597zM279 761q8 -8 6 -16t-8 -13l-28 -21q-8 -7 -16 -7t-18 9l-81 78h-3l-78 -78q-9 -10 -17.5 -9.5t-16.5 7.5l-28 21q-6 5 -8 13t6 16l91 109 q6 8 12 9.5t13 1.5h57q6 0 12 -1.5t13 -9.5z" />
<glyph unicode="&#xcf;" horiz-adv-x="269" d="M0 0zM198 25q0 -16 -5 -20.5t-22 -4.5h-72q-17 0 -22 4.5t-5 20.5v597q0 16 5 20.5t22 4.5h72q17 0 22 -4.5t5 -20.5v-597zM59 847q25 0 40 -13t15 -36v-24q0 -25 -15 -37t-40 -12h-10q-24 0 -38.5 12t-14.5 37v24q0 23 14.5 36t38.5 13h10zM222 847q26 0 40 -13t14 -36 v-24q0 -25 -14 -37t-40 -12h-9q-24 0 -38.5 12t-14.5 37v24q0 23 14.5 36t38.5 13h9z" />
<glyph unicode="&#xd0;" horiz-adv-x="617" d="M217 0q-29 0 -60.5 -0.5t-53.5 1.5q-20 2 -27.5 10t-7.5 31v235h-42q-19 0 -24 6t-5 31v34q0 25 5 31t24 6h42v219q0 23 7.5 31.5t27.5 10.5q60 6 140 6q89 0 146.5 -16t97.5 -51q43 -38 62.5 -94t19.5 -139v-57q0 -161 -88 -230q-23 -18 -48.5 -30.5t-56.5 -20t-70 -11 t-89 -3.5zM246 550h-19t-16 -1q-17 -1 -17 -18v-146h71q19 0 24 -6t5 -31v-36q0 -23 -5 -29t-24 -6h-71v-153q0 -23 24 -23h31q53 0 89.5 11t59 35t32.5 62.5t10 94.5v44q0 57 -9 95.5t-31 62t-59.5 34t-94.5 10.5z" />
<glyph unicode="&#xd1;" horiz-adv-x="642" d="M68 0zM68 622q0 16 5 20.5t22 4.5h60q20 0 30 -5t19 -19l249 -412h4v411q0 16 5 20.5t22 4.5h63q17 0 22 -4.5t5 -20.5v-597q0 -16 -5 -20.5t-22 -4.5h-60q-20 0 -30 5t-19 19l-249 403h-4v-402q0 -16 -5 -20.5t-22 -4.5h-63q-17 0 -22 4.5t-5 20.5v597zM169 730 q-8 5 -9.5 11.5t3.5 17.5q38 84 102 84q20 0 33.5 -5t27.5 -14l27 -17q11 -7 19 -10.5t16 -3.5q10 0 20.5 8t22.5 27q5 8 12.5 8t15.5 -5l22 -15q9 -6 10.5 -12t-3.5 -17q-22 -39 -49.5 -59t-56.5 -20q-17 0 -31.5 5t-28.5 14l-27 18q-9 6 -15.5 9t-14.5 3q-9 0 -19.5 -7.5 t-23.5 -28.5q-6 -10 -12 -11t-16 5z" />
<glyph unicode="&#xd2;" horiz-adv-x="618" d="M48 0zM441 334q0 50 -5 96.5t-28 80.5q-28 41 -99 41t-99 -41q-23 -34 -28 -80.5t-5 -96.5v-21q0 -50 5 -96.5t28 -80.5q28 -41 99 -41t99 41q23 34 28 80.5t5 96.5v21zM570 303q0 -78 -16.5 -141.5t-57.5 -105.5q-30 -31 -75.5 -48t-111.5 -17q-70 0 -114 16.5t-75 48.5 q-38 42 -55 105.5t-17 141.5v41q0 78 17 141.5t55 105.5q31 32 75 48.5t114 16.5q66 0 111.5 -17t75.5 -48q41 -42 57.5 -105.5t16.5 -141.5v-41zM409 772q8 -5 9 -11.5t-5 -18.5l-18 -31q-5 -10 -14 -13.5t-21 2.5l-170 71q-14 7 -16.5 13.5t4.5 19.5l29 53q6 11 12.5 13 t18.5 -5z" />
<glyph unicode="&#xd3;" horiz-adv-x="618" d="M48 0zM441 334q0 50 -5 96.5t-28 80.5q-28 41 -99 41t-99 -41q-23 -34 -28 -80.5t-5 -96.5v-21q0 -50 5 -96.5t28 -80.5q28 -41 99 -41t99 41q23 34 28 80.5t5 96.5v21zM570 303q0 -78 -16.5 -141.5t-57.5 -105.5q-30 -31 -75.5 -48t-111.5 -17q-70 0 -114 16.5t-75 48.5 q-38 42 -55 105.5t-17 141.5v41q0 78 17 141.5t55 105.5q31 32 75 48.5t114 16.5q66 0 111.5 -17t75.5 -48q41 -42 57.5 -105.5t16.5 -141.5v-41zM398 865q12 7 18.5 5t12.5 -13l29 -53q7 -13 4.5 -20t-16.5 -13l-170 -71q-13 -5 -21.5 -1.5t-13.5 12.5l-18 31 q-7 11 -5.5 18t9.5 12z" />
<glyph unicode="&#xd4;" horiz-adv-x="618" d="M48 0zM441 334q0 50 -5 96.5t-28 80.5q-28 41 -99 41t-99 -41q-23 -34 -28 -80.5t-5 -96.5v-21q0 -50 5 -96.5t28 -80.5q28 -41 99 -41t99 41q23 34 28 80.5t5 96.5v21zM570 303q0 -78 -16.5 -141.5t-57.5 -105.5q-30 -31 -75.5 -48t-111.5 -17q-70 0 -114 16.5t-75 48.5 q-38 42 -55 105.5t-17 141.5v41q0 78 17 141.5t55 105.5q31 32 75 48.5t114 16.5q66 0 111.5 -17t75.5 -48q41 -42 57.5 -105.5t16.5 -141.5v-41zM458 761q8 -8 6 -16t-8 -13l-28 -21q-8 -7 -16 -7t-18 9l-81 78h-3l-78 -78q-9 -10 -17.5 -9.5t-16.5 7.5l-28 21q-6 5 -8 13 t6 16l91 109q6 8 12 9.5t13 1.5h57q6 0 12 -1.5t13 -9.5z" />
<glyph unicode="&#xd5;" horiz-adv-x="618" d="M48 0zM441 334q0 50 -5 96.5t-28 80.5q-28 41 -99 41t-99 -41q-23 -34 -28 -80.5t-5 -96.5v-21q0 -50 5 -96.5t28 -80.5q28 -41 99 -41t99 41q23 34 28 80.5t5 96.5v21zM570 303q0 -78 -16.5 -141.5t-57.5 -105.5q-30 -31 -75.5 -48t-111.5 -17q-70 0 -114 16.5t-75 48.5 q-38 42 -55 105.5t-17 141.5v41q0 78 17 141.5t55 105.5q31 32 75 48.5t114 16.5q66 0 111.5 -17t75.5 -48q41 -42 57.5 -105.5t16.5 -141.5v-41zM155 730q-8 5 -9.5 11.5t3.5 17.5q38 84 102 84q20 0 33.5 -5t27.5 -14l27 -17q11 -7 19 -10.5t16 -3.5q10 0 20.5 8t22.5 27 q5 8 12.5 8t15.5 -5l22 -15q9 -6 10.5 -12t-3.5 -17q-22 -39 -49.5 -59t-56.5 -20q-17 0 -31.5 5t-28.5 14l-27 18q-9 6 -15.5 9t-14.5 3q-9 0 -19.5 -7.5t-23.5 -28.5q-6 -10 -12 -11t-16 5z" />
<glyph unicode="&#xd6;" horiz-adv-x="618" d="M48 0zM441 334q0 50 -5 96.5t-28 80.5q-28 41 -99 41t-99 -41q-23 -34 -28 -80.5t-5 -96.5v-21q0 -50 5 -96.5t28 -80.5q28 -41 99 -41t99 41q23 34 28 80.5t5 96.5v21zM570 303q0 -78 -16.5 -141.5t-57.5 -105.5q-30 -31 -75.5 -48t-111.5 -17q-70 0 -114 16.5t-75 48.5 q-38 42 -55 105.5t-17 141.5v41q0 78 17 141.5t55 105.5q31 32 75 48.5t114 16.5q66 0 111.5 -17t75.5 -48q41 -42 57.5 -105.5t16.5 -141.5v-41zM234 847q25 0 40 -13t15 -36v-24q0 -25 -15 -37t-40 -12h-10q-24 0 -38.5 12t-14.5 37v24q0 23 14.5 36t38.5 13h10zM397 847 q26 0 40 -13t14 -36v-24q0 -25 -14 -37t-40 -12h-9q-24 0 -38.5 12t-14.5 37v24q0 23 14.5 36t38.5 13h9z" />
<glyph unicode="&#xd7;" d="M274 340l101 99q17 17 28.5 14t23.5 -15l26 -25q9 -9 12 -16.5t1.5 -13.5t-5.5 -11t-8 -9l-101 -101l108 -108q13 -14 9.5 -26.5t-17.5 -26.5l-25 -24q-14 -14 -25.5 -16t-25.5 11l-108 106l-101 -99q-18 -18 -28 -15.5t-24 16.5l-25 23q-13 13 -16 23.5t15 28.5l101 101 l-106 107q-16 17 -13.5 28t18.5 26l24 21q14 13 25.5 17.5t28.5 -11.5z" />
<glyph unicode="&#xd8;" horiz-adv-x="618" d="M570 303q0 -78 -16.5 -141.5t-57.5 -105.5q-30 -31 -75.5 -48t-111.5 -17q-74 0 -120 18l-33 -59q-7 -13 -15.5 -14.5t-23.5 6.5l-26 14q-15 8 -17 15.5t6 20.5l37 67q-37 42 -53 104.5t-16 139.5v41q0 78 17 141.5t55 105.5q31 32 75 48.5t114 16.5q74 0 125 -23l38 68 q7 13 15.5 14.5t23.5 -6.5l26 -14q15 -8 17 -15.5t-6 -20.5l-43 -78q35 -42 50 -102.5t15 -134.5v-41zM177 313q0 -33 1 -65t9 -61l194 349q-28 16 -72 16q-71 0 -99 -41q-23 -34 -28 -80.5t-5 -96.5v-21zM441 334q0 30 -2 59.5t-7 55.5l-189 -342q25 -12 66 -12q71 0 99 41 q23 34 28 80.5t5 96.5v21z" />
<glyph unicode="&#xd9;" horiz-adv-x="614" d="M60 0zM554 219q0 -61 -14 -102t-46 -70q-29 -28 -75 -42t-112 -14q-68 0 -112.5 14t-73.5 42q-61 57 -61 172v403q0 16 5 20.5t22 4.5h72q17 0 22 -4.5t5 -20.5v-397q0 -33 6.5 -58t20.5 -39q30 -33 94 -33q35 0 57 8t38 25q26 29 26 97v397q0 16 5 20.5t22 4.5h72 q17 0 22 -4.5t5 -20.5v-403zM401 772q8 -5 9 -11.5t-5 -18.5l-18 -31q-5 -10 -14 -13.5t-21 2.5l-170 71q-14 7 -16.5 13.5t4.5 19.5l29 53q6 11 12.5 13t18.5 -5z" />
<glyph unicode="&#xda;" horiz-adv-x="614" d="M60 0zM554 219q0 -61 -14 -102t-46 -70q-29 -28 -75 -42t-112 -14q-68 0 -112.5 14t-73.5 42q-61 57 -61 172v403q0 16 5 20.5t22 4.5h72q17 0 22 -4.5t5 -20.5v-397q0 -33 6.5 -58t20.5 -39q30 -33 94 -33q35 0 57 8t38 25q26 29 26 97v397q0 16 5 20.5t22 4.5h72 q17 0 22 -4.5t5 -20.5v-403zM395 865q12 7 18.5 5t12.5 -13l29 -53q7 -13 4.5 -20t-16.5 -13l-170 -71q-13 -5 -21.5 -1.5t-13.5 12.5l-18 31q-7 11 -5.5 18t9.5 12z" />
<glyph unicode="&#xdb;" horiz-adv-x="614" d="M60 0zM554 219q0 -61 -14 -102t-46 -70q-29 -28 -75 -42t-112 -14q-68 0 -112.5 14t-73.5 42q-61 57 -61 172v403q0 16 5 20.5t22 4.5h72q17 0 22 -4.5t5 -20.5v-397q0 -33 6.5 -58t20.5 -39q30 -33 94 -33q35 0 57 8t38 25q26 29 26 97v397q0 16 5 20.5t22 4.5h72 q17 0 22 -4.5t5 -20.5v-403zM454 761q8 -8 6 -16t-8 -13l-28 -21q-8 -7 -16 -7t-18 9l-81 78h-3l-78 -78q-9 -10 -17.5 -9.5t-16.5 7.5l-28 21q-6 5 -8 13t6 16l91 109q6 8 12 9.5t13 1.5h57q6 0 12 -1.5t13 -9.5z" />
<glyph unicode="&#xdc;" horiz-adv-x="614" d="M60 0zM554 219q0 -61 -14 -102t-46 -70q-29 -28 -75 -42t-112 -14q-68 0 -112.5 14t-73.5 42q-61 57 -61 172v403q0 16 5 20.5t22 4.5h72q17 0 22 -4.5t5 -20.5v-397q0 -33 6.5 -58t20.5 -39q30 -33 94 -33q35 0 57 8t38 25q26 29 26 97v397q0 16 5 20.5t22 4.5h72 q17 0 22 -4.5t5 -20.5v-403zM232 847q25 0 40 -13t15 -36v-24q0 -25 -15 -37t-40 -12h-10q-24 0 -38.5 12t-14.5 37v24q0 23 14.5 36t38.5 13h10zM395 847q26 0 40 -13t14 -36v-24q0 -25 -14 -37t-40 -12h-9q-24 0 -38.5 12t-14.5 37v24q0 23 14.5 36t38.5 13h9z" />
<glyph unicode="&#xdd;" horiz-adv-x="499" d="M10 0zM312 25q0 -16 -5 -20.5t-22 -4.5h-72q-17 0 -22 4.5t-5 20.5v184q-54 94 -96 198.5t-76 218.5q-4 13 2 17t23 4h69q16 0 22.5 -2.5t10.5 -18.5q8 -34 20 -74.5t26 -81.5t29 -81t30 -72h7q15 32 30 72t29 81t26 81.5t20 74.5q4 16 10.5 18.5t22.5 2.5h69q17 0 23 -4 t2 -17q-34 -114 -76 -218.5t-97 -198.5v-184zM331 865q12 7 18.5 5t12.5 -13l29 -53q7 -13 4.5 -20t-16.5 -13l-170 -71q-13 -5 -21.5 -1.5t-13.5 12.5l-18 31q-7 11 -5.5 18t9.5 12z" />
<glyph unicode="&#xde;" horiz-adv-x="550" d="M194 544h72q66 0 109 -11t75 -37q31 -24 45 -62t14 -93v-18q0 -109 -65 -160q-35 -28 -82 -39t-110 -11h-58v-86q0 -17 -6 -22t-23 -5h-68q-17 0 -23 5t-6 22v593q0 17 6 22t23 5h68q17 0 23 -5t6 -22v-76zM194 440v-222h62q68 0 96 24.5t28 85.5v13q0 31 -6 48.5 t-20 28.5q-15 12 -35.5 17t-59.5 5h-65z" />
<glyph unicode="&#xdf;" horiz-adv-x="551" d="M179 -59q0 -15 -5.5 -20t-22.5 -5h-63q-17 0 -22.5 5t-5.5 20v545q0 62 14.5 98t43.5 59q26 20 64.5 31.5t97.5 11.5q46 0 84 -11.5t62 -29.5q26 -20 42.5 -54t16.5 -73v-10q0 -116 -76 -145v-3q28 -6 46.5 -17.5t31.5 -28.5q15 -20 22 -47.5t7 -59.5v-22 q0 -51 -13.5 -89t-36.5 -60q-24 -23 -62.5 -34t-82.5 -11q-26 0 -48.5 2t-42.5 5q-17 3 -16 22l4 56q1 18 23 14q14 -2 28 -3t31 -1q51 0 73 29.5t22 78.5v15q0 29 -6 45.5t-17 25.5q-15 14 -35 19t-55 5h-29q-18 0 -18 17v63q0 18 18 18h13q23 0 38 2t29 11q16 10 23.5 29 t7.5 51v10q0 37 -21.5 60.5t-66.5 23.5q-22 0 -41 -5t-31 -17q-14 -14 -19.5 -36.5t-5.5 -53.5v-536z" />
<glyph unicode="&#xe0;" horiz-adv-x="490" d="M36 0zM316 214q-13 1 -28 1.5t-30 0.5h-35q-17 0 -30.5 -2.5t-21.5 -9.5q-15 -12 -15 -49v-12q0 -32 15 -45q6 -5 16.5 -8.5t27.5 -3.5h36q35 0 50 16t15 51v61zM336 42q-14 -25 -39.5 -38t-70.5 -13h-37q-39 0 -64.5 7.5t-45.5 24.5q-22 19 -32.5 47.5t-10.5 64.5v23 q0 81 42 116q23 20 59 28.5t87 8.5h36q14 0 28.5 -0.5t27.5 -1.5v27q0 37 -17 51q-11 8 -26.5 11t-42.5 3t-60 -5t-63 -14q-12 -4 -17.5 0.5t-7.5 15.5l-9 47q-3 13 -0.5 19.5t15.5 10.5q28 9 69.5 16.5t81.5 7.5q54 0 86 -7.5t58 -24.5q27 -19 39.5 -48.5t12.5 -83.5v-316 q0 -19 -21 -19h-46q-20 0 -24 18l-6 24h-2zM358 608q15 -10 1 -31l-21 -29q-6 -9 -15.5 -11.5t-20.5 4.5l-162 89q-14 8 -15 15t7 19l35 50q7 10 13.5 11.5t17.5 -6.5z" />
<glyph unicode="&#xe1;" horiz-adv-x="490" d="M36 0zM316 214q-13 1 -28 1.5t-30 0.5h-35q-17 0 -30.5 -2.5t-21.5 -9.5q-15 -12 -15 -49v-12q0 -32 15 -45q6 -5 16.5 -8.5t27.5 -3.5h36q35 0 50 16t15 51v61zM336 42q-14 -25 -39.5 -38t-70.5 -13h-37q-39 0 -64.5 7.5t-45.5 24.5q-22 19 -32.5 47.5t-10.5 64.5v23 q0 81 42 116q23 20 59 28.5t87 8.5h36q14 0 28.5 -0.5t27.5 -1.5v27q0 37 -17 51q-11 8 -26.5 11t-42.5 3t-60 -5t-63 -14q-12 -4 -17.5 0.5t-7.5 15.5l-9 47q-3 13 -0.5 19.5t15.5 10.5q28 9 69.5 16.5t81.5 7.5q54 0 86 -7.5t58 -24.5q27 -19 39.5 -48.5t12.5 -83.5v-316 q0 -19 -21 -19h-46q-20 0 -24 18l-6 24h-2zM326 719q11 8 17.5 6.5t13.5 -11.5l35 -50q8 -12 7 -19t-15 -15l-162 -89q-11 -7 -20.5 -4.5t-15.5 11.5l-21 29q-14 21 1 31z" />
<glyph unicode="&#xe2;" horiz-adv-x="490" d="M36 0zM316 214q-13 1 -28 1.5t-30 0.5h-35q-17 0 -30.5 -2.5t-21.5 -9.5q-15 -12 -15 -49v-12q0 -32 15 -45q6 -5 16.5 -8.5t27.5 -3.5h36q35 0 50 16t15 51v61zM336 42q-14 -25 -39.5 -38t-70.5 -13h-37q-39 0 -64.5 7.5t-45.5 24.5q-22 19 -32.5 47.5t-10.5 64.5v23 q0 81 42 116q23 20 59 28.5t87 8.5h36q14 0 28.5 -0.5t27.5 -1.5v27q0 37 -17 51q-11 8 -26.5 11t-42.5 3t-60 -5t-63 -14q-12 -4 -17.5 0.5t-7.5 15.5l-9 47q-3 13 -0.5 19.5t15.5 10.5q28 9 69.5 16.5t81.5 7.5q54 0 86 -7.5t58 -24.5q27 -19 39.5 -48.5t12.5 -83.5v-316 q0 -19 -21 -19h-46q-20 0 -24 18l-6 24h-2zM400 599q8 -8 6 -16t-8 -13l-28 -21q-8 -7 -16 -7t-18 9l-81 78h-3l-78 -78q-9 -10 -17.5 -9.5t-16.5 7.5l-28 21q-6 5 -8 13t6 16l91 109q6 8 12 9.5t13 1.5h57q6 0 12 -1.5t13 -9.5z" />
<glyph unicode="&#xe3;" horiz-adv-x="490" d="M36 0zM316 214q-13 1 -28 1.5t-30 0.5h-35q-17 0 -30.5 -2.5t-21.5 -9.5q-15 -12 -15 -49v-12q0 -32 15 -45q6 -5 16.5 -8.5t27.5 -3.5h36q35 0 50 16t15 51v61zM336 42q-14 -25 -39.5 -38t-70.5 -13h-37q-39 0 -64.5 7.5t-45.5 24.5q-22 19 -32.5 47.5t-10.5 64.5v23 q0 81 42 116q23 20 59 28.5t87 8.5h36q14 0 28.5 -0.5t27.5 -1.5v27q0 37 -17 51q-11 8 -26.5 11t-42.5 3t-60 -5t-63 -14q-12 -4 -17.5 0.5t-7.5 15.5l-9 47q-3 13 -0.5 19.5t15.5 10.5q28 9 69.5 16.5t81.5 7.5q54 0 86 -7.5t58 -24.5q27 -19 39.5 -48.5t12.5 -83.5v-316 q0 -19 -21 -19h-46q-20 0 -24 18l-6 24h-2zM100 578q-8 5 -9.5 11.5t3.5 17.5q38 84 102 84q20 0 33.5 -5t27.5 -14l27 -17q11 -7 19 -10.5t16 -3.5q10 0 20.5 8t22.5 27q5 8 12.5 8t15.5 -5l22 -15q9 -6 10.5 -12t-3.5 -17q-22 -39 -49.5 -59t-56.5 -20q-17 0 -31.5 5 t-28.5 14l-27 18q-9 6 -15.5 9t-14.5 3q-9 0 -19.5 -7.5t-23.5 -28.5q-6 -10 -12 -11t-16 5z" />
<glyph unicode="&#xe4;" horiz-adv-x="490" d="M36 0zM316 214q-13 1 -28 1.5t-30 0.5h-35q-17 0 -30.5 -2.5t-21.5 -9.5q-15 -12 -15 -49v-12q0 -32 15 -45q6 -5 16.5 -8.5t27.5 -3.5h36q35 0 50 16t15 51v61zM336 42q-14 -25 -39.5 -38t-70.5 -13h-37q-39 0 -64.5 7.5t-45.5 24.5q-22 19 -32.5 47.5t-10.5 64.5v23 q0 81 42 116q23 20 59 28.5t87 8.5h36q14 0 28.5 -0.5t27.5 -1.5v27q0 37 -17 51q-11 8 -26.5 11t-42.5 3t-60 -5t-63 -14q-12 -4 -17.5 0.5t-7.5 15.5l-9 47q-3 13 -0.5 19.5t15.5 10.5q28 9 69.5 16.5t81.5 7.5q54 0 86 -7.5t58 -24.5q27 -19 39.5 -48.5t12.5 -83.5v-316 q0 -19 -21 -19h-46q-20 0 -24 18l-6 24h-2zM178 693q25 0 40 -13t15 -36v-24q0 -25 -15 -37t-40 -12h-10q-24 0 -38.5 12t-14.5 37v24q0 23 14.5 36t38.5 13h10zM341 693q26 0 40 -13t14 -36v-24q0 -25 -14 -37t-40 -12h-9q-24 0 -38.5 12t-14.5 37v24q0 23 14.5 36t38.5 13 h9z" />
<glyph unicode="&#xe5;" horiz-adv-x="490" d="M36 0zM316 214q-13 1 -28 1.5t-30 0.5h-35q-17 0 -30.5 -2.5t-21.5 -9.5q-15 -12 -15 -49v-12q0 -32 15 -45q6 -5 16.5 -8.5t27.5 -3.5h36q35 0 50 16t15 51v61zM336 42q-14 -25 -39.5 -38t-70.5 -13h-37q-39 0 -64.5 7.5t-45.5 24.5q-22 19 -32.5 47.5t-10.5 64.5v23 q0 81 42 116q23 20 59 28.5t87 8.5h36q14 0 28.5 -0.5t27.5 -1.5v27q0 37 -17 51q-11 8 -26.5 11t-42.5 3t-60 -5t-63 -14q-12 -4 -17.5 0.5t-7.5 15.5l-9 47q-3 13 -0.5 19.5t15.5 10.5q28 9 69.5 16.5t81.5 7.5q54 0 86 -7.5t58 -24.5q27 -19 39.5 -48.5t12.5 -83.5v-316 q0 -19 -21 -19h-46q-20 0 -24 18l-6 24h-2zM154 632q0 41 28 69t69 28q42 0 69.5 -28t27.5 -69q0 -42 -27.5 -69.5t-69.5 -27.5q-41 0 -69 27.5t-28 69.5zM219 632q0 -14 9 -23.5t23 -9.5t23.5 9.5t9.5 23.5t-9.5 23t-23.5 9t-23 -9t-9 -23z" />
<glyph unicode="&#xe6;" horiz-adv-x="753" d="M714 217q0 -16 -5.5 -22.5t-21.5 -6.5h-250q1 -59 25 -80q10 -9 31 -14.5t57 -5.5q25 0 56 6t52 15q9 4 16 2t12 -18l13 -48q3 -11 -0.5 -17t-17.5 -11q-32 -12 -69.5 -19t-75.5 -7q-46 0 -89.5 14t-69.5 53q-20 -34 -57 -50.5t-94 -16.5h-37q-39 0 -64.5 7.5t-45.5 24.5 q-22 19 -32.5 47.5t-10.5 64.5v23q0 81 42 116q23 20 59 28.5t87 8.5h36q14 0 28.5 -0.5t27.5 -1.5v27q0 37 -17 51q-11 8 -26.5 11t-42.5 3t-60 -5t-63 -14q-12 -4 -17.5 0.5t-7.5 15.5l-9 47q-3 13 -0.5 19.5t15.5 10.5q30 10 70 17t77 7q66 0 100 -13.5t51 -38.5 q22 26 55 39t81 13q51 0 84 -11.5t57 -33.5q12 -11 21.5 -25.5t16 -34.5t10 -46.5t3.5 -62.5v-68zM316 214q-13 1 -28 1.5t-30 0.5h-35q-17 0 -30.5 -2.5t-21.5 -9.5q-15 -12 -15 -49v-12q0 -32 15 -45q6 -5 16.5 -8.5t27.5 -3.5h36q35 0 50 16t15 51v61zM518 404 q-38 0 -57 -20q-14 -14 -20 -40t-6 -62h147q13 0 13 14q0 33 -4 55t-15 34q-9 10 -22 14.5t-36 4.5z" />
<glyph unicode="&#xe7;" horiz-adv-x="445" d="M406 52q4 -14 0 -20.5t-21 -14.5q-23 -11 -55.5 -17t-67.5 -8l-9 -50q8 2 14.5 2.5t16.5 0.5q31 0 56 -20t25 -64q0 -53 -31 -76t-87 -23q-20 0 -44 3.5t-41 8.5q-9 3 -12 7t-1 14l5 32q2 8 5.5 11t12.5 0q11 -4 27.5 -7t35.5 -3q22 0 32 6t10 22q0 14 -7 20t-26 6 q-10 0 -17.5 -1t-17.5 -3q-14 -3 -22 8l-8 12q-5 9 -4 18l17 77v2q-61 9 -96 41q-36 32 -46 82.5t-10 114.5v30q0 67 13.5 114t46.5 76q54 46 150 46q43 0 84 -12t70 -29q12 -8 13.5 -16t-3.5 -19l-25 -50q-4 -8 -11.5 -10.5t-17.5 3.5q-52 33 -105 33q-43 0 -67 -21 q-21 -19 -24 -48.5t-3 -74.5v-16q0 -51 4.5 -78.5t18.5 -44.5q11 -13 28.5 -20.5t48.5 -7.5q25 0 53 6t48 15q11 5 19.5 2.5t11.5 -13.5z" />
<glyph unicode="&#xe8;" horiz-adv-x="475" d="M38 0zM436 217q0 -16 -5.5 -22.5t-21.5 -6.5h-250q1 -59 25 -80q10 -9 31 -14.5t57 -5.5q25 0 56 6t52 15q9 4 16 2t12 -18l13 -48q3 -11 -0.5 -17t-17.5 -11q-32 -12 -69.5 -19t-75.5 -7q-61 0 -101.5 12.5t-66.5 38.5q-29 30 -40.5 75.5t-11.5 114.5v27q0 59 10.5 104 t34.5 75t63.5 45.5t97.5 15.5q51 0 84 -11.5t57 -33.5q12 -11 21.5 -25.5t16 -34.5t10 -46.5t3.5 -62.5v-68zM240 404q-38 0 -57 -20q-14 -14 -20 -40t-6 -62h147q13 0 13 14q0 33 -4 55t-15 34q-9 10 -22 14.5t-36 4.5zM348 608q15 -10 1 -31l-21 -29q-6 -9 -15.5 -11.5 t-20.5 4.5l-162 89q-14 8 -15 15t7 19l35 50q7 10 13.5 11.5t17.5 -6.5z" />
<glyph unicode="&#xe9;" horiz-adv-x="475" d="M38 0zM436 217q0 -16 -5.5 -22.5t-21.5 -6.5h-250q1 -59 25 -80q10 -9 31 -14.5t57 -5.5q25 0 56 6t52 15q9 4 16 2t12 -18l13 -48q3 -11 -0.5 -17t-17.5 -11q-32 -12 -69.5 -19t-75.5 -7q-61 0 -101.5 12.5t-66.5 38.5q-29 30 -40.5 75.5t-11.5 114.5v27q0 59 10.5 104 t34.5 75t63.5 45.5t97.5 15.5q51 0 84 -11.5t57 -33.5q12 -11 21.5 -25.5t16 -34.5t10 -46.5t3.5 -62.5v-68zM240 404q-38 0 -57 -20q-14 -14 -20 -40t-6 -62h147q13 0 13 14q0 33 -4 55t-15 34q-9 10 -22 14.5t-36 4.5zM324 719q11 8 17.5 6.5t13.5 -11.5l35 -50 q8 -12 7 -19t-15 -15l-162 -89q-11 -7 -20.5 -4.5t-15.5 11.5l-21 29q-14 21 1 31z" />
<glyph unicode="&#xea;" horiz-adv-x="475" d="M38 0zM436 217q0 -16 -5.5 -22.5t-21.5 -6.5h-250q1 -59 25 -80q10 -9 31 -14.5t57 -5.5q25 0 56 6t52 15q9 4 16 2t12 -18l13 -48q3 -11 -0.5 -17t-17.5 -11q-32 -12 -69.5 -19t-75.5 -7q-61 0 -101.5 12.5t-66.5 38.5q-29 30 -40.5 75.5t-11.5 114.5v27q0 59 10.5 104 t34.5 75t63.5 45.5t97.5 15.5q51 0 84 -11.5t57 -33.5q12 -11 21.5 -25.5t16 -34.5t10 -46.5t3.5 -62.5v-68zM240 404q-38 0 -57 -20q-14 -14 -20 -40t-6 -62h147q13 0 13 14q0 33 -4 55t-15 34q-9 10 -22 14.5t-36 4.5zM393 599q8 -8 6 -16t-8 -13l-28 -21q-8 -7 -16 -7 t-18 9l-81 78h-3l-78 -78q-9 -10 -17.5 -9.5t-16.5 7.5l-28 21q-6 5 -8 13t6 16l91 109q6 8 12 9.5t13 1.5h57q6 0 12 -1.5t13 -9.5z" />
<glyph unicode="&#xeb;" horiz-adv-x="475" d="M38 0zM436 217q0 -16 -5.5 -22.5t-21.5 -6.5h-250q1 -59 25 -80q10 -9 31 -14.5t57 -5.5q25 0 56 6t52 15q9 4 16 2t12 -18l13 -48q3 -11 -0.5 -17t-17.5 -11q-32 -12 -69.5 -19t-75.5 -7q-61 0 -101.5 12.5t-66.5 38.5q-29 30 -40.5 75.5t-11.5 114.5v27q0 59 10.5 104 t34.5 75t63.5 45.5t97.5 15.5q51 0 84 -11.5t57 -33.5q12 -11 21.5 -25.5t16 -34.5t10 -46.5t3.5 -62.5v-68zM240 404q-38 0 -57 -20q-14 -14 -20 -40t-6 -62h147q13 0 13 14q0 33 -4 55t-15 34q-9 10 -22 14.5t-36 4.5zM169 693q25 0 40 -13t15 -36v-24q0 -25 -15 -37 t-40 -12h-10q-24 0 -38.5 12t-14.5 37v24q0 23 14.5 36t38.5 13h10zM332 693q26 0 40 -13t14 -36v-24q0 -25 -14 -37t-40 -12h-9q-24 0 -38.5 12t-14.5 37v24q0 23 14.5 36t38.5 13h9z" />
<glyph unicode="&#xec;" horiz-adv-x="245" d="M0 0zM182 25q0 -15 -5.5 -20t-22.5 -5h-63q-17 0 -22.5 5t-5.5 20v440q0 15 5.5 20t22.5 5h63q17 0 22.5 -5t5.5 -20v-440zM198 607q15 -10 1 -31l-21 -29q-6 -9 -15.5 -11.5t-20.5 4.5l-162 89q-14 8 -15 15t7 19l35 50q7 10 13.5 11.5t17.5 -6.5z" />
<glyph unicode="&#xed;" horiz-adv-x="245" d="M44 0zM182 25q0 -15 -5.5 -20t-22.5 -5h-63q-17 0 -22.5 5t-5.5 20v440q0 15 5.5 20t22.5 5h63q17 0 22.5 -5t5.5 -20v-440zM219 719q11 8 17.5 6.5t13.5 -11.5l35 -50q8 -12 7 -19t-15 -15l-162 -89q-11 -7 -20.5 -4.5t-15.5 11.5l-21 29q-14 21 1 31z" />
<glyph unicode="&#xee;" horiz-adv-x="245" d="M0 0zM182 25q0 -15 -5.5 -20t-22.5 -5h-63q-17 0 -22.5 5t-5.5 20v440q0 15 5.5 20t22.5 5h63q17 0 22.5 -5t5.5 -20v-440zM269 599q8 -8 6 -16t-8 -13l-28 -21q-8 -7 -16 -7t-18 9l-81 78h-3l-78 -78q-9 -10 -17.5 -9.5t-16.5 7.5l-28 21q-6 5 -8 13t6 16l91 109 q6 8 12 9.5t13 1.5h57q6 0 12 -1.5t13 -9.5z" />
<glyph unicode="&#xef;" horiz-adv-x="245" d="M0 0zM182 25q0 -15 -5.5 -20t-22.5 -5h-63q-17 0 -22.5 5t-5.5 20v440q0 15 5.5 20t22.5 5h63q17 0 22.5 -5t5.5 -20v-440zM47 693q25 0 40 -13t15 -36v-24q0 -25 -15 -37t-40 -12h-10q-24 0 -38.5 12t-14.5 37v24q0 23 14.5 36t38.5 13h10zM210 693q26 0 40 -13t14 -36 v-24q0 -25 -14 -37t-40 -12h-9q-24 0 -38.5 12t-14.5 37v24q0 23 14.5 36t38.5 13h9z" />
<glyph unicode="&#xf0;" horiz-adv-x="523" d="M305 641q36 -24 65.5 -54.5t50.5 -71.5t33 -95t12 -125v-45q0 -41 -1 -72.5t-5.5 -56.5t-14 -44.5t-26.5 -36.5q-23 -23 -65.5 -36t-99.5 -13q-54 0 -96.5 10t-69.5 39q-26 27 -37 65t-11 93v61q0 58 11.5 95t39.5 64q21 20 57 32.5t81 12.5q32 0 57.5 -6.5t42.5 -17.5 l3 3q-8 41 -28.5 67.5t-54.5 52.5l-34 -47q-9 -13 -25 -2l-29 20q-8 5 -9.5 10.5t3.5 13.5l32 44q-14 8 -28 14.5t-29 13.5t-5 21l31 51q7 10 22 4q17 -7 32.5 -13.5t31.5 -14.5l32 45q6 9 12.5 9t16.5 -6l24 -16q18 -12 7 -28zM256 367q-29 0 -47.5 -6.5t-30.5 -21.5 q-11 -14 -15 -31.5t-4 -45.5v-59q0 -30 4.5 -55t16.5 -39q21 -22 78 -22q26 0 42 6t27 18q12 14 15 32.5t3 41.5v71q0 60 -21.5 85.5t-67.5 25.5z" />
<glyph unicode="&#xf1;" horiz-adv-x="525" d="M60 0zM470 25q0 -15 -5.5 -20t-22.5 -5h-63q-17 0 -22.5 5t-5.5 20v279q0 30 -4.5 48t-16.5 30q-11 11 -26.5 16t-39.5 5q-45 0 -64 -18q-10 -9 -15.5 -23.5t-5.5 -45.5v-291q0 -15 -5.5 -20t-22.5 -5h-63q-17 0 -22.5 5t-5.5 20v442q0 23 24 23h37q13 0 18.5 -3.5 t7.5 -14.5l5 -24h3q21 22 52.5 36.5t83.5 14.5q54 0 91 -15.5t61 -51.5q17 -26 22 -61t5 -73v-273zM115 578q-8 5 -9.5 11.5t3.5 17.5q38 84 102 84q20 0 33.5 -5t27.5 -14l27 -17q11 -7 19 -10.5t16 -3.5q10 0 20.5 8t22.5 27q5 8 12.5 8t15.5 -5l22 -15q9 -6 10.5 -12 t-3.5 -17q-22 -39 -49.5 -59t-56.5 -20q-17 0 -31.5 5t-28.5 14l-27 18q-9 6 -15.5 9t-14.5 3q-9 0 -19.5 -7.5t-23.5 -28.5q-6 -10 -12 -11t-16 5z" />
<glyph unicode="&#xf2;" horiz-adv-x="500" d="M40 0zM250 86q27 0 41.5 7t25.5 20q13 17 17.5 46.5t4.5 75.5v21q0 46 -4.5 75t-17.5 46q-11 14 -25.5 20.5t-41.5 6.5t-41.5 -6.5t-25.5 -20.5q-13 -17 -17.5 -46t-4.5 -75v-21q0 -46 4.5 -75.5t17.5 -46.5q11 -13 25.5 -20t41.5 -7zM250 499q57 0 95.5 -15t63.5 -44 q28 -32 39.5 -77.5t11.5 -102.5v-30q0 -58 -11.5 -103t-39.5 -77q-25 -28 -64 -43.5t-95 -15.5t-95 15.5t-64 43.5q-28 32 -39.5 77t-11.5 103v30q0 57 11.5 102.5t39.5 77.5q25 29 63.5 44t95.5 15zM357 608q15 -10 1 -31l-21 -29q-6 -9 -15.5 -11.5t-20.5 4.5l-162 89 q-14 8 -15 15t7 19l35 50q7 10 13.5 11.5t17.5 -6.5z" />
<glyph unicode="&#xf3;" horiz-adv-x="500" d="M40 0zM250 86q27 0 41.5 7t25.5 20q13 17 17.5 46.5t4.5 75.5v21q0 46 -4.5 75t-17.5 46q-11 14 -25.5 20.5t-41.5 6.5t-41.5 -6.5t-25.5 -20.5q-13 -17 -17.5 -46t-4.5 -75v-21q0 -46 4.5 -75.5t17.5 -46.5q11 -13 25.5 -20t41.5 -7zM250 499q57 0 95.5 -15t63.5 -44 q28 -32 39.5 -77.5t11.5 -102.5v-30q0 -58 -11.5 -103t-39.5 -77q-25 -28 -64 -43.5t-95 -15.5t-95 15.5t-64 43.5q-28 32 -39.5 77t-11.5 103v30q0 57 11.5 102.5t39.5 77.5q25 29 63.5 44t95.5 15zM335 719q11 8 17.5 6.5t13.5 -11.5l35 -50q8 -12 7 -19t-15 -15l-162 -89 q-11 -7 -20.5 -4.5t-15.5 11.5l-21 29q-14 21 1 31z" />
<glyph unicode="&#xf4;" horiz-adv-x="500" d="M40 0zM250 86q27 0 41.5 7t25.5 20q13 17 17.5 46.5t4.5 75.5v21q0 46 -4.5 75t-17.5 46q-11 14 -25.5 20.5t-41.5 6.5t-41.5 -6.5t-25.5 -20.5q-13 -17 -17.5 -46t-4.5 -75v-21q0 -46 4.5 -75.5t17.5 -46.5q11 -13 25.5 -20t41.5 -7zM250 499q57 0 95.5 -15t63.5 -44 q28 -32 39.5 -77.5t11.5 -102.5v-30q0 -58 -11.5 -103t-39.5 -77q-25 -28 -64 -43.5t-95 -15.5t-95 15.5t-64 43.5q-28 32 -39.5 77t-11.5 103v30q0 57 11.5 102.5t39.5 77.5q25 29 63.5 44t95.5 15zM395 599q8 -8 6 -16t-8 -13l-28 -21q-8 -7 -16 -7t-18 9l-81 78h-3 l-78 -78q-9 -10 -17.5 -9.5t-16.5 7.5l-28 21q-6 5 -8 13t6 16l91 109q6 8 12 9.5t13 1.5h57q6 0 12 -1.5t13 -9.5z" />
<glyph unicode="&#xf5;" horiz-adv-x="500" d="M40 0zM250 86q27 0 41.5 7t25.5 20q13 17 17.5 46.5t4.5 75.5v21q0 46 -4.5 75t-17.5 46q-11 14 -25.5 20.5t-41.5 6.5t-41.5 -6.5t-25.5 -20.5q-13 -17 -17.5 -46t-4.5 -75v-21q0 -46 4.5 -75.5t17.5 -46.5q11 -13 25.5 -20t41.5 -7zM250 499q57 0 95.5 -15t63.5 -44 q28 -32 39.5 -77.5t11.5 -102.5v-30q0 -58 -11.5 -103t-39.5 -77q-25 -28 -64 -43.5t-95 -15.5t-95 15.5t-64 43.5q-28 32 -39.5 77t-11.5 103v30q0 57 11.5 102.5t39.5 77.5q25 29 63.5 44t95.5 15zM95 578q-8 5 -9.5 11.5t3.5 17.5q38 84 102 84q20 0 33.5 -5t27.5 -14 l27 -17q11 -7 19 -10.5t16 -3.5q10 0 20.5 8t22.5 27q5 8 12.5 8t15.5 -5l22 -15q9 -6 10.5 -12t-3.5 -17q-22 -39 -49.5 -59t-56.5 -20q-17 0 -31.5 5t-28.5 14l-27 18q-9 6 -15.5 9t-14.5 3q-9 0 -19.5 -7.5t-23.5 -28.5q-6 -10 -12 -11t-16 5z" />
<glyph unicode="&#xf6;" horiz-adv-x="500" d="M40 0zM250 86q27 0 41.5 7t25.5 20q13 17 17.5 46.5t4.5 75.5v21q0 46 -4.5 75t-17.5 46q-11 14 -25.5 20.5t-41.5 6.5t-41.5 -6.5t-25.5 -20.5q-13 -17 -17.5 -46t-4.5 -75v-21q0 -46 4.5 -75.5t17.5 -46.5q11 -13 25.5 -20t41.5 -7zM250 499q57 0 95.5 -15t63.5 -44 q28 -32 39.5 -77.5t11.5 -102.5v-30q0 -58 -11.5 -103t-39.5 -77q-25 -28 -64 -43.5t-95 -15.5t-95 15.5t-64 43.5q-28 32 -39.5 77t-11.5 103v30q0 57 11.5 102.5t39.5 77.5q25 29 63.5 44t95.5 15zM174 693q25 0 40 -13t15 -36v-24q0 -25 -15 -37t-40 -12h-10 q-24 0 -38.5 12t-14.5 37v24q0 23 14.5 36t38.5 13h10zM337 693q26 0 40 -13t14 -36v-24q0 -25 -14 -37t-40 -12h-9q-24 0 -38.5 12t-14.5 37v24q0 23 14.5 36t38.5 13h9z" />
<glyph unicode="&#xf7;" d="M68 204q-26 0 -31 9.5t-5 27.5v36q0 17 5 27t31 10h404q25 0 30.5 -10t5.5 -27v-38q0 -26 -12 -30.5t-24 -4.5h-404zM337 432q0 -32 -17 -48t-46 -16h-11q-35 0 -49.5 16t-14.5 48v16q0 35 18.5 49t45.5 14h11q29 0 46 -14t17 -49v-16zM337 71q0 -32 -17 -48t-46 -16h-11 q-35 0 -49.5 16t-14.5 48v16q0 35 18.5 49t45.5 14h11q29 0 46 -14t17 -49v-16z" />
<glyph unicode="&#xf8;" horiz-adv-x="500" d="M250 499q52 0 91 -14l30 54q7 13 15.5 14.5t23.5 -6.5l14 -8q15 -8 17 -15.5t-6 -20.5l-32 -57l6 -6q28 -32 39.5 -77.5t11.5 -102.5v-30q0 -58 -11.5 -103t-39.5 -77q-25 -28 -64 -43.5t-95 -15.5q-26 0 -48.5 3.5t-41.5 9.5l-28 -50q-7 -13 -15.5 -14.5t-23.5 6.5 l-14 8q-15 8 -17 15.5t6 20.5l29 53l-6 7q-28 32 -39.5 77t-11.5 103v30q0 57 11.5 102.5t39.5 77.5q25 29 63.5 44t95.5 15zM161 235q0 -21 0.5 -39t2.5 -32l129 233q-15 7 -43 7q-27 0 -41.5 -6.5t-25.5 -20.5q-13 -17 -17.5 -46t-4.5 -75v-21zM250 86q27 0 41.5 7 t25.5 20q13 17 17.5 46.5t4.5 75.5v21q0 38 -3 67l-127 -230q14 -7 41 -7z" />
<glyph unicode="&#xf9;" horiz-adv-x="510" d="M55 0zM455 154q0 -51 -14 -81.5t-43 -49.5q-26 -17 -62.5 -24.5t-79.5 -7.5q-45 0 -81.5 7t-62.5 25q-28 19 -42.5 49.5t-14.5 81.5v311q0 15 5.5 20t22.5 5h63q17 0 22.5 -5t5.5 -20v-299q0 -26 5.5 -40t16.5 -22t26 -10.5t34 -2.5t34.5 2.5t25.5 10.5q11 8 15.5 22 t4.5 40v299q0 15 5.5 20t22.5 5h63q17 0 22.5 -5t5.5 -20v-311zM348 608q15 -10 1 -31l-21 -29q-6 -9 -15.5 -11.5t-20.5 4.5l-162 89q-14 8 -15 15t7 19l35 50q7 10 13.5 11.5t17.5 -6.5z" />
<glyph unicode="&#xfa;" horiz-adv-x="510" d="M55 0zM455 154q0 -51 -14 -81.5t-43 -49.5q-26 -17 -62.5 -24.5t-79.5 -7.5q-45 0 -81.5 7t-62.5 25q-28 19 -42.5 49.5t-14.5 81.5v311q0 15 5.5 20t22.5 5h63q17 0 22.5 -5t5.5 -20v-299q0 -26 5.5 -40t16.5 -22t26 -10.5t34 -2.5t34.5 2.5t25.5 10.5q11 8 15.5 22 t4.5 40v299q0 15 5.5 20t22.5 5h63q17 0 22.5 -5t5.5 -20v-311zM332 719q11 8 17.5 6.5t13.5 -11.5l35 -50q8 -12 7 -19t-15 -15l-162 -89q-11 -7 -20.5 -4.5t-15.5 11.5l-21 29q-14 21 1 31z" />
<glyph unicode="&#xfb;" horiz-adv-x="510" d="M55 0zM455 154q0 -51 -14 -81.5t-43 -49.5q-26 -17 -62.5 -24.5t-79.5 -7.5q-45 0 -81.5 7t-62.5 25q-28 19 -42.5 49.5t-14.5 81.5v311q0 15 5.5 20t22.5 5h63q17 0 22.5 -5t5.5 -20v-299q0 -26 5.5 -40t16.5 -22t26 -10.5t34 -2.5t34.5 2.5t25.5 10.5q11 8 15.5 22 t4.5 40v299q0 15 5.5 20t22.5 5h63q17 0 22.5 -5t5.5 -20v-311zM401 599q8 -8 6 -16t-8 -13l-28 -21q-8 -7 -16 -7t-18 9l-81 78h-3l-78 -78q-9 -10 -17.5 -9.5t-16.5 7.5l-28 21q-6 5 -8 13t6 16l91 109q6 8 12 9.5t13 1.5h57q6 0 12 -1.5t13 -9.5z" />
<glyph unicode="&#xfc;" horiz-adv-x="510" d="M55 0zM455 154q0 -51 -14 -81.5t-43 -49.5q-26 -17 -62.5 -24.5t-79.5 -7.5q-45 0 -81.5 7t-62.5 25q-28 19 -42.5 49.5t-14.5 81.5v311q0 15 5.5 20t22.5 5h63q17 0 22.5 -5t5.5 -20v-299q0 -26 5.5 -40t16.5 -22t26 -10.5t34 -2.5t34.5 2.5t25.5 10.5q11 8 15.5 22 t4.5 40v299q0 15 5.5 20t22.5 5h63q17 0 22.5 -5t5.5 -20v-311zM181 693q25 0 40 -13t15 -36v-24q0 -25 -15 -37t-40 -12h-10q-24 0 -38.5 12t-14.5 37v24q0 23 14.5 36t38.5 13h10zM344 693q26 0 40 -13t14 -36v-24q0 -25 -14 -37t-40 -12h-9q-24 0 -38.5 12t-14.5 37v24 q0 23 14.5 36t38.5 13h9z" />
<glyph unicode="&#xfd;" horiz-adv-x="458" d="M6 0zM131 -135q16 33 31.5 66t29.5 67q-20 6 -35 20.5t-26 46.5q-28 79 -59.5 183t-60.5 219q-5 23 23 23h68q24 0 28 -21q21 -92 46 -185t53 -181h4q38 110 61.5 206t34.5 160q4 21 28 21h67q28 0 23 -23q-33 -153 -83.5 -308.5t-129.5 -327.5q-8 -18 -20 -18 q-11 0 -23 5l-49 20q-11 5 -13.5 11t2.5 16zM318 719q11 8 17.5 6.5t13.5 -11.5l35 -50q8 -12 7 -19t-15 -15l-162 -89q-11 -7 -20.5 -4.5t-15.5 11.5l-21 29q-14 21 1 31z" />
<glyph unicode="&#xfe;" horiz-adv-x="544" d="M178 175q0 -29 6 -44t15 -23q10 -9 26.5 -14.5t42.5 -5.5t43.5 7t28.5 21q16 19 20 45.5t4 68.5v29q0 48 -5 74t-19 43q-22 26 -72 26q-27 0 -43.5 -5.5t-27.5 -16.5t-15 -29.5t-4 -44.5v-131zM178 464q18 15 45.5 25t68.5 10q49 0 85 -12.5t62 -41.5q12 -14 21 -31 t14.5 -38t8 -47.5t2.5 -60.5v-38q0 -63 -12 -109t-39 -76q-24 -27 -61 -40.5t-94 -13.5q-32 0 -56.5 7t-44.5 20v-170q0 -15 -5.5 -20t-22.5 -5h-63q-17 0 -22.5 5t-5.5 20v806q0 23 24 23h69q13 0 18.5 -3t7.5 -13v-197z" />
<glyph unicode="&#xff;" horiz-adv-x="458" d="M6 0zM131 -135q16 33 31.5 66t29.5 67q-20 6 -35 20.5t-26 46.5q-28 79 -59.5 183t-60.5 219q-5 23 23 23h68q24 0 28 -21q21 -92 46 -185t53 -181h4q38 110 61.5 206t34.5 160q4 21 28 21h67q28 0 23 -23q-33 -153 -83.5 -308.5t-129.5 -327.5q-8 -18 -20 -18 q-11 0 -23 5l-49 20q-11 5 -13.5 11t2.5 16zM157 693q25 0 40 -13t15 -36v-24q0 -25 -15 -37t-40 -12h-10q-24 0 -38.5 12t-14.5 37v24q0 23 14.5 36t38.5 13h10zM320 693q26 0 40 -13t14 -36v-24q0 -25 -14 -37t-40 -12h-9q-24 0 -38.5 12t-14.5 37v24q0 23 14.5 36 t38.5 13h9z" />
<glyph unicode="&#x100;" horiz-adv-x="569" d="M2 0zM279 519q-20 -64 -39 -131l-38 -134h166l-38 134t-39 131h-12zM140 26q-5 -17 -14 -21.5t-29 -4.5h-53q-21 0 -31.5 3t-5.5 23q21 76 45 155t48.5 155t48.5 146t45 129q8 23 21.5 29.5t44.5 6.5h49q31 0 45.5 -6.5t22.5 -29.5q21 -59 45 -129t48 -146t47.5 -155 t44.5 -155q5 -20 -5 -23t-31 -3h-53q-20 0 -29 4.5t-14 21.5l-33 123h-224zM392 814q15 0 19.5 -6.5t4.5 -17.5v-37q0 -17 -8 -19.5t-16 -2.5h-216q-14 0 -19 6t-5 18v35q0 11 5 17.5t19 6.5h216z" />
<glyph unicode="&#x101;" horiz-adv-x="490" d="M36 0zM316 214q-13 1 -28 1.5t-30 0.5h-35q-17 0 -30.5 -2.5t-21.5 -9.5q-15 -12 -15 -49v-12q0 -32 15 -45q6 -5 16.5 -8.5t27.5 -3.5h36q35 0 50 16t15 51v61zM336 42q-14 -25 -39.5 -38t-70.5 -13h-37q-39 0 -64.5 7.5t-45.5 24.5q-22 19 -32.5 47.5t-10.5 64.5v23 q0 81 42 116q23 20 59 28.5t87 8.5h36q14 0 28.5 -0.5t27.5 -1.5v27q0 37 -17 51q-11 8 -26.5 11t-42.5 3t-60 -5t-63 -14q-12 -4 -17.5 0.5t-7.5 15.5l-9 47q-3 13 -0.5 19.5t15.5 10.5q28 9 69.5 16.5t81.5 7.5q54 0 86 -7.5t58 -24.5q27 -19 39.5 -48.5t12.5 -83.5v-316 q0 -19 -21 -19h-46q-20 0 -24 18l-6 24h-2zM353 662q15 0 19.5 -6.5t4.5 -17.5v-37q0 -17 -8 -19.5t-16 -2.5h-216q-14 0 -19 6t-5 18v35q0 11 5 17.5t19 6.5h216z" />
<glyph unicode="&#x102;" horiz-adv-x="569" d="M2 0zM279 519q-20 -64 -39 -131l-38 -134h166l-38 134t-39 131h-12zM140 26q-5 -17 -14 -21.5t-29 -4.5h-53q-21 0 -31.5 3t-5.5 23q21 76 45 155t48.5 155t48.5 146t45 129q8 23 21.5 29.5t44.5 6.5h49q31 0 45.5 -6.5t22.5 -29.5q21 -59 45 -129t48 -146t47.5 -155 t44.5 -155q5 -20 -5 -23t-31 -3h-53q-20 0 -29 4.5t-14 21.5l-33 123h-224zM284 706q-58 0 -97.5 30t-55.5 84q-4 11 -1.5 16t15.5 10l35 12q10 3 16.5 2t11.5 -14q14 -32 32.5 -46t43.5 -14t43.5 14t32.5 46q5 13 11.5 14t16.5 -2l35 -12q13 -5 15.5 -10t-1.5 -16 q-16 -54 -55.5 -84t-97.5 -30z" />
<glyph unicode="&#x103;" horiz-adv-x="490" d="M36 0zM316 214q-13 1 -28 1.5t-30 0.5h-35q-17 0 -30.5 -2.5t-21.5 -9.5q-15 -12 -15 -49v-12q0 -32 15 -45q6 -5 16.5 -8.5t27.5 -3.5h36q35 0 50 16t15 51v61zM336 42q-14 -25 -39.5 -38t-70.5 -13h-37q-39 0 -64.5 7.5t-45.5 24.5q-22 19 -32.5 47.5t-10.5 64.5v23 q0 81 42 116q23 20 59 28.5t87 8.5h36q14 0 28.5 -0.5t27.5 -1.5v27q0 37 -17 51q-11 8 -26.5 11t-42.5 3t-60 -5t-63 -14q-12 -4 -17.5 0.5t-7.5 15.5l-9 47q-3 13 -0.5 19.5t15.5 10.5q28 9 69.5 16.5t81.5 7.5q54 0 86 -7.5t58 -24.5q27 -19 39.5 -48.5t12.5 -83.5v-316 q0 -19 -21 -19h-46q-20 0 -24 18l-6 24h-2zM255 551q-58 0 -97.5 30t-55.5 84q-4 11 -1.5 16t15.5 10l35 12q10 3 16.5 2t11.5 -14q14 -32 32.5 -46t43.5 -14t43.5 14t32.5 46q5 13 11.5 14t16.5 -2l35 -12q13 -5 15.5 -10t-1.5 -16q-16 -54 -55.5 -84t-97.5 -30z" />
<glyph unicode="&#x104;" horiz-adv-x="569" d="M397 149h-224l-33 -123q-5 -17 -14 -21.5t-29 -4.5h-53q-21 0 -31.5 3t-5.5 23q21 76 45 155t48.5 155t48.5 146t45 129q8 23 21.5 29.5t44.5 6.5h49q31 0 45.5 -6.5t22.5 -29.5q21 -59 45 -129t48 -146t47.5 -155t44.5 -155q4 -14 3.5 -18.5t-14.5 -10.5 q-106 -48 -106 -103q0 -29 32 -29q11 0 24.5 2.5t22.5 6.5q11 5 14.5 3t5.5 -9l9 -34q2 -8 -0.5 -12t-13.5 -9q-33 -14 -75 -14q-51 0 -78 20.5t-27 62.5q0 34 19 64t59 54zM279 519q-20 -64 -39 -131l-38 -134h166l-38 134t-39 131h-12z" />
<glyph unicode="&#x105;" horiz-adv-x="490" d="M336 42q-14 -25 -39.5 -38t-70.5 -13h-37q-39 0 -64.5 7.5t-45.5 24.5q-22 19 -32.5 47.5t-10.5 64.5v23q0 81 42 116q23 20 59 28.5t87 8.5h36q14 0 28.5 -0.5t27.5 -1.5v27q0 37 -17 51q-11 8 -26.5 11t-42.5 3t-60 -5t-63 -14q-12 -4 -17.5 0.5t-7.5 15.5l-9 47 q-3 13 -0.5 19.5t15.5 10.5q28 9 69.5 16.5t81.5 7.5q54 0 86 -7.5t58 -24.5q27 -19 39.5 -48.5t12.5 -83.5v-319q0 -11 -9 -16q-40 -23 -60.5 -49t-20.5 -52q0 -19 8.5 -26.5t28.5 -7.5q11 0 22 2.5t20 6.5q11 5 14.5 3t5.5 -9l9 -34q2 -8 -0.5 -12t-13.5 -9 q-33 -14 -75 -14q-105 0 -105 83q0 34 22 67.5t66 59.5l-9 33h-2zM316 214q-13 1 -28 1.5t-30 0.5h-35q-17 0 -30.5 -2.5t-21.5 -9.5q-15 -12 -15 -49v-12q0 -32 15 -45q6 -5 16.5 -8.5t27.5 -3.5h36q35 0 50 16t15 51v61z" />
<glyph unicode="&#x106;" horiz-adv-x="533" d="M48 0zM310 656q48 0 95 -11.5t84 -33.5q8 -5 10 -11t-3 -18l-24 -60q-5 -11 -14 -11t-18 5q-32 17 -65 26.5t-65 9.5q-37 0 -58 -7.5t-37 -23.5q-23 -23 -30.5 -68t-7.5 -120v-18q0 -78 8 -119.5t26 -63.5q31 -37 112 -37q32 0 66 7.5t62 19.5q24 10 30 -16l12 -48 q3 -14 0 -21.5t-21 -14.5q-36 -14 -78 -22.5t-86 -8.5q-70 0 -116 13t-78 45q-36 36 -51 96t-15 158v40q0 52 4.5 93t14.5 72.5t26.5 56t41.5 44.5q60 47 175 47zM391 865q12 7 18.5 5t12.5 -13l29 -53q7 -13 4.5 -20t-16.5 -13l-170 -71q-13 -5 -21.5 -1.5t-13.5 12.5 l-18 31q-7 11 -5.5 18t9.5 12z" />
<glyph unicode="&#x107;" horiz-adv-x="445" d="M40 0zM406 52q4 -14 0 -20.5t-21 -14.5q-26 -13 -65 -19.5t-80 -6.5q-44 0 -82.5 12t-61.5 33q-36 32 -46 82.5t-10 114.5v30q0 67 13.5 114t46.5 76q54 46 150 46q43 0 84 -12t70 -29q12 -8 13.5 -16t-3.5 -19l-25 -50q-4 -8 -11.5 -10.5t-17.5 3.5q-52 33 -105 33 q-43 0 -67 -21q-21 -19 -24 -48.5t-3 -74.5v-16q0 -51 4.5 -78.5t18.5 -44.5q11 -13 28.5 -20.5t48.5 -7.5q25 0 53 6t48 15q11 5 19.5 2.5t11.5 -13.5zM323 719q11 8 17.5 6.5t13.5 -11.5l35 -50q8 -12 7 -19t-15 -15l-162 -89q-11 -7 -20.5 -4.5t-15.5 11.5l-21 29 q-14 21 1 31z" />
<glyph unicode="&#x108;" horiz-adv-x="533" d="M48 0zM310 656q48 0 95 -11.5t84 -33.5q8 -5 10 -11t-3 -18l-24 -60q-5 -11 -14 -11t-18 5q-32 17 -65 26.5t-65 9.5q-37 0 -58 -7.5t-37 -23.5q-23 -23 -30.5 -68t-7.5 -120v-18q0 -78 8 -119.5t26 -63.5q31 -37 112 -37q32 0 66 7.5t62 19.5q24 10 30 -16l12 -48 q3 -14 0 -21.5t-21 -14.5q-36 -14 -78 -22.5t-86 -8.5q-70 0 -116 13t-78 45q-36 36 -51 96t-15 158v40q0 52 4.5 93t14.5 72.5t26.5 56t41.5 44.5q60 47 175 47zM442 761q8 -8 6 -16t-8 -13l-28 -21q-8 -7 -16 -7t-18 9l-81 78h-3l-78 -78q-9 -10 -17.5 -9.5t-16.5 7.5 l-28 21q-6 5 -8 13t6 16l91 109q6 8 12 9.5t13 1.5h57q6 0 12 -1.5t13 -9.5z" />
<glyph unicode="&#x109;" horiz-adv-x="445" d="M40 0zM406 52q4 -14 0 -20.5t-21 -14.5q-26 -13 -65 -19.5t-80 -6.5q-44 0 -82.5 12t-61.5 33q-36 32 -46 82.5t-10 114.5v30q0 67 13.5 114t46.5 76q54 46 150 46q43 0 84 -12t70 -29q12 -8 13.5 -16t-3.5 -19l-25 -50q-4 -8 -11.5 -10.5t-17.5 3.5q-52 33 -105 33 q-43 0 -67 -21q-21 -19 -24 -48.5t-3 -74.5v-16q0 -51 4.5 -78.5t18.5 -44.5q11 -13 28.5 -20.5t48.5 -7.5q25 0 53 6t48 15q11 5 19.5 2.5t11.5 -13.5zM393 599q8 -8 6 -16t-8 -13l-28 -21q-8 -7 -16 -7t-18 9l-81 78h-3l-78 -78q-9 -10 -17.5 -9.5t-16.5 7.5l-28 21 q-6 5 -8 13t6 16l91 109q6 8 12 9.5t13 1.5h57q6 0 12 -1.5t13 -9.5z" />
<glyph unicode="&#x10a;" horiz-adv-x="533" d="M48 0zM310 656q48 0 95 -11.5t84 -33.5q8 -5 10 -11t-3 -18l-24 -60q-5 -11 -14 -11t-18 5q-32 17 -65 26.5t-65 9.5q-37 0 -58 -7.5t-37 -23.5q-23 -23 -30.5 -68t-7.5 -120v-18q0 -78 8 -119.5t26 -63.5q31 -37 112 -37q32 0 66 7.5t62 19.5q24 10 30 -16l12 -48 q3 -14 0 -21.5t-21 -14.5q-36 -14 -78 -22.5t-86 -8.5q-70 0 -116 13t-78 45q-36 36 -51 96t-15 158v40q0 52 4.5 93t14.5 72.5t26.5 56t41.5 44.5q60 47 175 47zM235 794q0 27 19.5 47t47.5 20t47.5 -20t19.5 -47q0 -29 -19.5 -48.5t-47.5 -19.5t-47.5 19.5t-19.5 48.5z " />
<glyph unicode="&#x10b;" horiz-adv-x="445" d="M40 0zM406 52q4 -14 0 -20.5t-21 -14.5q-26 -13 -65 -19.5t-80 -6.5q-44 0 -82.5 12t-61.5 33q-36 32 -46 82.5t-10 114.5v30q0 67 13.5 114t46.5 76q54 46 150 46q43 0 84 -12t70 -29q12 -8 13.5 -16t-3.5 -19l-25 -50q-4 -8 -11.5 -10.5t-17.5 3.5q-52 33 -105 33 q-43 0 -67 -21q-21 -19 -24 -48.5t-3 -74.5v-16q0 -51 4.5 -78.5t18.5 -44.5q11 -13 28.5 -20.5t48.5 -7.5q25 0 53 6t48 15q11 5 19.5 2.5t11.5 -13.5zM178 622q0 27 19.5 47t47.5 20t47.5 -20t19.5 -47q0 -29 -19.5 -48.5t-47.5 -19.5t-47.5 19.5t-19.5 48.5z" />
<glyph unicode="&#x10c;" horiz-adv-x="533" d="M48 0zM310 656q48 0 95 -11.5t84 -33.5q8 -5 10 -11t-3 -18l-24 -60q-5 -11 -14 -11t-18 5q-32 17 -65 26.5t-65 9.5q-37 0 -58 -7.5t-37 -23.5q-23 -23 -30.5 -68t-7.5 -120v-18q0 -78 8 -119.5t26 -63.5q31 -37 112 -37q32 0 66 7.5t62 19.5q24 10 30 -16l12 -48 q3 -14 0 -21.5t-21 -14.5q-36 -14 -78 -22.5t-86 -8.5q-70 0 -116 13t-78 45q-36 36 -51 96t-15 158v40q0 52 4.5 93t14.5 72.5t26.5 56t41.5 44.5q60 47 175 47zM358 722q-7 -8 -13 -9.5t-12 -1.5h-57q-7 0 -13 1.5t-12 9.5l-91 109q-8 8 -6 16t8 13l28 21q8 7 16.5 7.5 t17.5 -9.5l78 -78h3l81 78q10 9 18 9t16 -7l28 -21q6 -5 8 -13t-6 -16z" />
<glyph unicode="&#x10d;" horiz-adv-x="445" d="M40 0zM406 52q4 -14 0 -20.5t-21 -14.5q-26 -13 -65 -19.5t-80 -6.5q-44 0 -82.5 12t-61.5 33q-36 32 -46 82.5t-10 114.5v30q0 67 13.5 114t46.5 76q54 46 150 46q43 0 84 -12t70 -29q12 -8 13.5 -16t-3.5 -19l-25 -50q-4 -8 -11.5 -10.5t-17.5 3.5q-52 33 -105 33 q-43 0 -67 -21q-21 -19 -24 -48.5t-3 -74.5v-16q0 -51 4.5 -78.5t18.5 -44.5q11 -13 28.5 -20.5t48.5 -7.5q25 0 53 6t48 15q11 5 19.5 2.5t11.5 -13.5zM295 557q-7 -8 -13 -9.5t-12 -1.5h-57q-7 0 -13 1.5t-12 9.5l-91 109q-8 8 -6 16t8 13l28 21q8 7 16.5 7.5t17.5 -9.5 l78 -78h3l81 78q10 9 18 9t16 -7l28 -21q6 -5 8 -13t-6 -16z" />
<glyph unicode="&#x10e;" horiz-adv-x="617" d="M68 0zM246 550h-19t-16 -1q-17 -1 -17 -18v-407q0 -23 24 -23h31q53 0 89.5 11t59 35t32.5 62.5t10 94.5v44q0 57 -9 95.5t-31 62t-59.5 34t-94.5 10.5zM217 0q-29 0 -60.5 -0.5t-53.5 1.5q-20 2 -27.5 10t-7.5 31v562q0 23 7.5 31.5t27.5 10.5q60 6 140 6 q89 0 146.5 -16t97.5 -51q43 -38 62.5 -94t19.5 -139v-57q0 -161 -88 -230q-23 -18 -48.5 -30.5t-56.5 -20t-70 -11t-89 -3.5zM358 722q-7 -8 -13 -9.5t-12 -1.5h-57q-7 0 -13 1.5t-12 9.5l-91 109q-8 8 -6 16t8 13l28 21q8 7 16.5 7.5t17.5 -9.5l78 -78h3l81 78q10 9 18 9 t16 -7l28 -21q6 -5 8 -13t-6 -16z" />
<glyph unicode="&#x10f;" horiz-adv-x="523" d="M40 0zM345 314q0 30 -5.5 45t-14.5 23q-11 10 -26.5 15.5t-40.5 5.5q-26 0 -43.5 -7.5t-28.5 -21.5q-16 -19 -20.5 -45t-4.5 -68v-31q0 -48 5 -74t19 -43q11 -14 27 -20t42 -6q29 0 45 5.5t27 16.5t15 29.5t4 44.5v131zM464 177q0 -54 -10.5 -85.5t-34.5 -53.5 q-25 -22 -65.5 -34.5t-99.5 -12.5q-58 0 -94.5 10.5t-60.5 31.5q-31 27 -45 73.5t-14 116.5v41q0 69 14 112t43 72q51 51 151 51q29 0 53.5 -7t41.5 -18h2v178q0 15 5.5 20t22.5 5h63q17 0 22.5 -5t5.5 -20v-475zM589 725q22 0 34.5 -11.5t12.5 -38.5v-18q0 -40 -18 -76.5 t-52 -69.5q-15 -15 -28 -1l-19 18q-7 7 -7 11.5t5 10.5q9 11 21 26t17 27q3 7 -3 10q-16 8 -23 17.5t-7 30.5v20q0 22 13 33t33 11h21z" />
<glyph unicode="&#x110;" horiz-adv-x="617" d="M217 0q-29 0 -60.5 -0.5t-53.5 1.5q-20 2 -27.5 10t-7.5 31v235h-42q-19 0 -24 6t-5 31v34q0 25 5 31t24 6h42v219q0 23 7.5 31.5t27.5 10.5q60 6 140 6q89 0 146.5 -16t97.5 -51q43 -38 62.5 -94t19.5 -139v-57q0 -161 -88 -230q-23 -18 -48.5 -30.5t-56.5 -20t-70 -11 t-89 -3.5zM246 550h-19t-16 -1q-17 -1 -17 -18v-146h71q19 0 24 -6t5 -31v-36q0 -23 -5 -29t-24 -6h-71v-153q0 -23 24 -23h31q53 0 89.5 11t59 35t32.5 62.5t10 94.5v44q0 57 -9 95.5t-31 62t-59.5 34t-94.5 10.5z" />
<glyph unicode="&#x111;" horiz-adv-x="523" d="M464 622h29q15 0 19.5 -6.5t4.5 -17.5v-37q0 -17 -8 -19.5t-16 -2.5h-29v-362q0 -54 -10.5 -85.5t-34.5 -53.5q-25 -22 -65.5 -34.5t-99.5 -12.5q-58 0 -94.5 10.5t-60.5 31.5q-31 27 -45 73.5t-14 116.5v41q0 69 14 112t43 72q51 51 151 51q29 0 53.5 -7t41.5 -18h2v65 h-65q-14 0 -19 6t-5 18v35q0 11 5 17.5t19 6.5h65v30q0 15 5.5 20t22.5 5h63q17 0 22.5 -5t5.5 -20v-30zM345 314q0 30 -5.5 45t-14.5 23q-11 10 -26.5 15.5t-40.5 5.5q-50 0 -74 -29q-16 -19 -20.5 -45t-4.5 -68v-31q0 -48 5 -74t19 -43q22 -26 71 -26q29 0 45 5.5t27 16.5 t15 29.5t4 44.5v131z" />
<glyph unicode="&#x112;" horiz-adv-x="498" d="M52 0zM176 282q0 -41 1.5 -77t5.5 -74q2 -17 9 -22.5t23 -5.5h217q17 0 21.5 -5t4.5 -19v-55q0 -14 -4.5 -19t-21.5 -5h-229q-38 0 -64 5t-43 19t-23.5 35.5t-11.5 56.5q-5 40 -7 90.5t-2 96.5v41q0 44 2 95.5t7 91.5q4 37 13 58.5t26 35.5t42.5 18t60.5 4h230 q17 0 21 -5t4 -19v-55q0 -14 -4 -19t-21 -5h-218q-14 0 -22.5 -6.5t-10.5 -23.5q-2 -26 -4 -59t-2 -70h224q17 0 21 -5t4 -19v-55q0 -14 -4 -19t-21 -5h-224zM390 814q15 0 19.5 -6.5t4.5 -17.5v-37q0 -17 -8 -19.5t-16 -2.5h-216q-14 0 -19 6t-5 18v35q0 11 5 17.5t19 6.5 h216z" />
<glyph unicode="&#x113;" horiz-adv-x="475" d="M38 0zM436 217q0 -16 -5.5 -22.5t-21.5 -6.5h-250q1 -59 25 -80q10 -9 31 -14.5t57 -5.5q25 0 56 6t52 15q9 4 16 2t12 -18l13 -48q3 -11 -0.5 -17t-17.5 -11q-32 -12 -69.5 -19t-75.5 -7q-61 0 -101.5 12.5t-66.5 38.5q-29 30 -40.5 75.5t-11.5 114.5v27q0 59 10.5 104 t34.5 75t63.5 45.5t97.5 15.5q51 0 84 -11.5t57 -33.5q12 -11 21.5 -25.5t16 -34.5t10 -46.5t3.5 -62.5v-68zM240 404q-38 0 -57 -20q-14 -14 -20 -40t-6 -62h147q13 0 13 14q0 33 -4 55t-15 34q-9 10 -22 14.5t-36 4.5zM351 662q15 0 19.5 -6.5t4.5 -17.5v-37 q0 -17 -8 -19.5t-16 -2.5h-216q-14 0 -19 6t-5 18v35q0 11 5 17.5t19 6.5h216z" />
<glyph unicode="&#x114;" horiz-adv-x="498" d="M52 0zM176 282q0 -41 1.5 -77t5.5 -74q2 -17 9 -22.5t23 -5.5h217q17 0 21.5 -5t4.5 -19v-55q0 -14 -4.5 -19t-21.5 -5h-229q-38 0 -64 5t-43 19t-23.5 35.5t-11.5 56.5q-5 40 -7 90.5t-2 96.5v41q0 44 2 95.5t7 91.5q4 37 13 58.5t26 35.5t42.5 18t60.5 4h230 q17 0 21 -5t4 -19v-55q0 -14 -4 -19t-21 -5h-218q-14 0 -22.5 -6.5t-10.5 -23.5q-2 -26 -4 -59t-2 -70h224q17 0 21 -5t4 -19v-55q0 -14 -4 -19t-21 -5h-224zM286 706q-58 0 -97.5 30t-55.5 84q-4 11 -1.5 16t15.5 10l35 12q10 3 16.5 2t11.5 -14q14 -32 32.5 -46t43.5 -14 t43.5 14t32.5 46q5 13 11.5 14t16.5 -2l35 -12q13 -5 15.5 -10t-1.5 -16q-16 -54 -55.5 -84t-97.5 -30z" />
<glyph unicode="&#x115;" horiz-adv-x="475" d="M38 0zM436 217q0 -16 -5.5 -22.5t-21.5 -6.5h-250q1 -59 25 -80q10 -9 31 -14.5t57 -5.5q25 0 56 6t52 15q9 4 16 2t12 -18l13 -48q3 -11 -0.5 -17t-17.5 -11q-32 -12 -69.5 -19t-75.5 -7q-61 0 -101.5 12.5t-66.5 38.5q-29 30 -40.5 75.5t-11.5 114.5v27q0 59 10.5 104 t34.5 75t63.5 45.5t97.5 15.5q51 0 84 -11.5t57 -33.5q12 -11 21.5 -25.5t16 -34.5t10 -46.5t3.5 -62.5v-68zM240 404q-38 0 -57 -20q-14 -14 -20 -40t-6 -62h147q13 0 13 14q0 33 -4 55t-15 34q-9 10 -22 14.5t-36 4.5zM243 551q-58 0 -97.5 30t-55.5 84q-4 11 -1.5 16 t15.5 10l35 12q10 3 16.5 2t11.5 -14q14 -32 32.5 -46t43.5 -14t43.5 14t32.5 46q5 13 11.5 14t16.5 -2l35 -12q13 -5 15.5 -10t-1.5 -16q-16 -54 -55.5 -84t-97.5 -30z" />
<glyph unicode="&#x116;" horiz-adv-x="498" d="M52 0zM176 282q0 -41 1.5 -77t5.5 -74q2 -17 9 -22.5t23 -5.5h217q17 0 21.5 -5t4.5 -19v-55q0 -14 -4.5 -19t-21.5 -5h-229q-38 0 -64 5t-43 19t-23.5 35.5t-11.5 56.5q-5 40 -7 90.5t-2 96.5v41q0 44 2 95.5t7 91.5q4 37 13 58.5t26 35.5t42.5 18t60.5 4h230 q17 0 21 -5t4 -19v-55q0 -14 -4 -19t-21 -5h-218q-14 0 -22.5 -6.5t-10.5 -23.5q-2 -26 -4 -59t-2 -70h224q17 0 21 -5t4 -19v-55q0 -14 -4 -19t-21 -5h-224zM211 794q0 27 19.5 47t47.5 20t47.5 -20t19.5 -47q0 -29 -19.5 -48.5t-47.5 -19.5t-47.5 19.5t-19.5 48.5z" />
<glyph unicode="&#x117;" horiz-adv-x="475" d="M38 0zM436 217q0 -16 -5.5 -22.5t-21.5 -6.5h-250q1 -59 25 -80q10 -9 31 -14.5t57 -5.5q25 0 56 6t52 15q9 4 16 2t12 -18l13 -48q3 -11 -0.5 -17t-17.5 -11q-32 -12 -69.5 -19t-75.5 -7q-61 0 -101.5 12.5t-66.5 38.5q-29 30 -40.5 75.5t-11.5 114.5v27q0 59 10.5 104 t34.5 75t63.5 45.5t97.5 15.5q51 0 84 -11.5t57 -33.5q12 -11 21.5 -25.5t16 -34.5t10 -46.5t3.5 -62.5v-68zM240 404q-38 0 -57 -20q-14 -14 -20 -40t-6 -62h147q13 0 13 14q0 33 -4 55t-15 34q-9 10 -22 14.5t-36 4.5zM177 622q0 27 19.5 47t47.5 20t47.5 -20t19.5 -47 q0 -29 -19.5 -48.5t-47.5 -19.5t-47.5 19.5t-19.5 48.5z" />
<glyph unicode="&#x118;" horiz-adv-x="498" d="M203 0q-38 0 -64 5t-43 19t-23.5 35.5t-11.5 56.5q-5 40 -7 90.5t-2 96.5v41q0 44 2 95.5t7 91.5q4 37 13 58.5t26 35.5t42.5 18t60.5 4h230q17 0 21 -5t4 -19v-55q0 -14 -4 -19t-21 -5h-218q-14 0 -22.5 -6.5t-10.5 -23.5q-2 -26 -4 -59t-2 -70h224q17 0 21 -5t4 -19 v-55q0 -14 -4 -19t-21 -5h-224q0 -41 1.5 -77t5.5 -74q2 -17 9 -22.5t23 -5.5h217q17 0 21.5 -5t4.5 -19v-49q0 -12 -4 -19.5t-15 -15.5q-32 -23 -48.5 -50.5t-16.5 -50.5q0 -29 32 -29q11 0 24.5 2.5t22.5 6.5q11 5 14.5 3t5.5 -9l9 -34q2 -8 -0.5 -12t-13.5 -9 q-33 -14 -75 -14q-51 0 -78 20.5t-27 62.5q0 34 22 66t57 52h-164z" />
<glyph unicode="&#x119;" horiz-adv-x="475" d="M436 217q0 -16 -5.5 -22.5t-21.5 -6.5h-250q1 -59 25 -80q10 -9 31 -14.5t57 -5.5q25 0 56 6t52 15q9 4 16 2t12 -18l11 -40q4 -12 1.5 -19.5t-13.5 -14.5q-46 -27 -70 -59.5t-24 -58.5q0 -20 9 -28t23 -8q11 0 24.5 2.5t22.5 6.5q11 5 14.5 3t5.5 -9l9 -34 q2 -8 -0.5 -12t-13.5 -9q-33 -14 -75 -14q-50 0 -77.5 20.5t-27.5 62.5q0 32 19.5 61t51.5 50q-11 -1 -20.5 -1.5t-19.5 -0.5q-61 0 -101.5 12.5t-66.5 38.5q-29 30 -40.5 75.5t-11.5 114.5v27q0 59 10.5 104t34.5 75t63.5 45.5t97.5 15.5q51 0 84 -11.5t57 -33.5 q12 -11 21.5 -25.5t16 -34.5t10 -46.5t3.5 -62.5v-68zM240 404q-38 0 -57 -20q-14 -14 -20 -40t-6 -62h147q13 0 13 14q0 33 -4 55t-15 34q-9 10 -22 14.5t-36 4.5z" />
<glyph unicode="&#x11a;" horiz-adv-x="498" d="M52 0zM176 282q0 -41 1.5 -77t5.5 -74q2 -17 9 -22.5t23 -5.5h217q17 0 21.5 -5t4.5 -19v-55q0 -14 -4.5 -19t-21.5 -5h-229q-38 0 -64 5t-43 19t-23.5 35.5t-11.5 56.5q-5 40 -7 90.5t-2 96.5v41q0 44 2 95.5t7 91.5q4 37 13 58.5t26 35.5t42.5 18t60.5 4h230 q17 0 21 -5t4 -19v-55q0 -14 -4 -19t-21 -5h-218q-14 0 -22.5 -6.5t-10.5 -23.5q-2 -26 -4 -59t-2 -70h224q17 0 21 -5t4 -19v-55q0 -14 -4 -19t-21 -5h-224zM339 722q-7 -8 -13 -9.5t-12 -1.5h-57q-7 0 -13 1.5t-12 9.5l-91 109q-8 8 -6 16t8 13l28 21q8 7 16.5 7.5 t17.5 -9.5l78 -78h3l81 78q10 9 18 9t16 -7l28 -21q6 -5 8 -13t-6 -16z" />
<glyph unicode="&#x11b;" horiz-adv-x="475" d="M38 0zM436 217q0 -16 -5.5 -22.5t-21.5 -6.5h-250q1 -59 25 -80q10 -9 31 -14.5t57 -5.5q25 0 56 6t52 15q9 4 16 2t12 -18l13 -48q3 -11 -0.5 -17t-17.5 -11q-32 -12 -69.5 -19t-75.5 -7q-61 0 -101.5 12.5t-66.5 38.5q-29 30 -40.5 75.5t-11.5 114.5v27q0 59 10.5 104 t34.5 75t63.5 45.5t97.5 15.5q51 0 84 -11.5t57 -33.5q12 -11 21.5 -25.5t16 -34.5t10 -46.5t3.5 -62.5v-68zM240 404q-38 0 -57 -20q-14 -14 -20 -40t-6 -62h147q13 0 13 14q0 33 -4 55t-15 34q-9 10 -22 14.5t-36 4.5zM301 557q-7 -8 -13 -9.5t-12 -1.5h-57q-7 0 -13 1.5 t-12 9.5l-91 109q-8 8 -6 16t8 13l28 21q8 7 16.5 7.5t17.5 -9.5l78 -78h3l81 78q10 9 18 9t16 -7l28 -21q6 -5 8 -13t-6 -16z" />
<glyph unicode="&#x11c;" horiz-adv-x="593" d="M48 0zM515 617q17 -9 10 -31l-19 -57q-3 -11 -11.5 -13.5t-18.5 2.5q-28 14 -68 24t-76 10q-38 0 -66.5 -8t-47.5 -29q-22 -24 -31.5 -67.5t-9.5 -112.5v-22q0 -37 1.5 -64.5t5 -48.5t10 -36.5t15.5 -27.5q17 -23 45 -32t70 -9q26 0 46 1t31 3q9 2 12.5 5.5t3.5 13.5v145 h-74q-16 0 -21.5 4.5t-5.5 18.5v56q0 14 5.5 19.5t21.5 5.5h176q14 0 19 -6t5 -19v-290q0 -18 -4.5 -25.5t-21.5 -12.5q-42 -11 -92 -17t-95 -6q-82 0 -131.5 14.5t-82.5 47.5q-38 37 -53 99t-15 153v39q0 179 78 251q36 33 89 47t124 14q24 0 49 -3.5t48.5 -8.5t44 -12.5 t34.5 -14.5zM466 761q8 -8 6 -16t-8 -13l-28 -21q-8 -7 -16 -7t-18 9l-81 78h-3l-78 -78q-9 -10 -17.5 -9.5t-16.5 7.5l-28 21q-6 5 -8 13t6 16l91 109q6 8 12 9.5t13 1.5h57q6 0 12 -1.5t13 -9.5z" />
<glyph unicode="&#x11d;" horiz-adv-x="525" d="M40 0zM256 402q-28 0 -43.5 -5.5t-27.5 -17.5q-15 -15 -19.5 -43.5t-4.5 -79.5v-23q0 -51 4 -77.5t17 -42.5q11 -14 28.5 -19.5t41.5 -5.5q28 0 45.5 6t28.5 20q20 23 20 74v116q0 26 -4 44.5t-15 30.5q-22 23 -71 23zM346 26q-12 -14 -40.5 -24.5t-68.5 -10.5 q-104 0 -150.5 55.5t-46.5 182.5v34q0 125 48 180.5t151 55.5q45 0 78 -13t53 -36h2l6 24q2 10 7.5 13t18.5 3h37q24 0 24 -23v-460q0 -48 -10.5 -84t-34.5 -60q-26 -25 -67.5 -37.5t-102.5 -12.5q-42 0 -82 6.5t-68 17.5q-12 5 -14.5 10.5t0.5 16.5l14 45q5 14 10 17.5 t17 0.5q29 -7 60.5 -12t57.5 -5q57 0 81 24q20 21 20 70v22zM405 615q8 -8 6 -16t-8 -13l-28 -21q-8 -7 -16 -7t-18 9l-81 78h-3l-78 -78q-9 -10 -17.5 -9.5t-16.5 7.5l-28 21q-6 5 -8 13t6 16l91 109q6 8 12 9.5t13 1.5h57q6 0 12 -1.5t13 -9.5z" />
<glyph unicode="&#x11e;" horiz-adv-x="593" d="M48 0zM515 617q17 -9 10 -31l-19 -57q-3 -11 -11.5 -13.5t-18.5 2.5q-28 14 -68 24t-76 10q-38 0 -66.5 -8t-47.5 -29q-22 -24 -31.5 -67.5t-9.5 -112.5v-22q0 -37 1.5 -64.5t5 -48.5t10 -36.5t15.5 -27.5q17 -23 45 -32t70 -9q26 0 46 1t31 3q9 2 12.5 5.5t3.5 13.5v145 h-74q-16 0 -21.5 4.5t-5.5 18.5v56q0 14 5.5 19.5t21.5 5.5h176q14 0 19 -6t5 -19v-290q0 -18 -4.5 -25.5t-21.5 -12.5q-42 -11 -92 -17t-95 -6q-82 0 -131.5 14.5t-82.5 47.5q-38 37 -53 99t-15 153v39q0 179 78 251q36 33 89 47t124 14q24 0 49 -3.5t48.5 -8.5t44 -12.5 t34.5 -14.5zM327 706q-58 0 -97.5 30t-55.5 84q-4 11 -1.5 16t15.5 10l35 12q10 3 16.5 2t11.5 -14q14 -32 32.5 -46t43.5 -14t43.5 14t32.5 46q5 13 11.5 14t16.5 -2l35 -12q13 -5 15.5 -10t-1.5 -16q-16 -54 -55.5 -84t-97.5 -30z" />
<glyph unicode="&#x11f;" horiz-adv-x="525" d="M40 0zM256 402q-28 0 -43.5 -5.5t-27.5 -17.5q-15 -15 -19.5 -43.5t-4.5 -79.5v-23q0 -51 4 -77.5t17 -42.5q11 -14 28.5 -19.5t41.5 -5.5q28 0 45.5 6t28.5 20q20 23 20 74v116q0 26 -4 44.5t-15 30.5q-22 23 -71 23zM346 26q-12 -14 -40.5 -24.5t-68.5 -10.5 q-104 0 -150.5 55.5t-46.5 182.5v34q0 125 48 180.5t151 55.5q45 0 78 -13t53 -36h2l6 24q2 10 7.5 13t18.5 3h37q24 0 24 -23v-460q0 -48 -10.5 -84t-34.5 -60q-26 -25 -67.5 -37.5t-102.5 -12.5q-42 0 -82 6.5t-68 17.5q-12 5 -14.5 10.5t0.5 16.5l14 45q5 14 10 17.5 t17 0.5q29 -7 60.5 -12t57.5 -5q57 0 81 24q20 21 20 70v22zM257 559q-58 0 -97.5 30t-55.5 84q-4 11 -1.5 16t15.5 10l35 12q10 3 16.5 2t11.5 -14q14 -32 32.5 -46t43.5 -14t43.5 14t32.5 46q5 13 11.5 14t16.5 -2l35 -12q13 -5 15.5 -10t-1.5 -16q-16 -54 -55.5 -84 t-97.5 -30z" />
<glyph unicode="&#x120;" horiz-adv-x="593" d="M48 0zM515 617q17 -9 10 -31l-19 -57q-3 -11 -11.5 -13.5t-18.5 2.5q-28 14 -68 24t-76 10q-38 0 -66.5 -8t-47.5 -29q-22 -24 -31.5 -67.5t-9.5 -112.5v-22q0 -37 1.5 -64.5t5 -48.5t10 -36.5t15.5 -27.5q17 -23 45 -32t70 -9q26 0 46 1t31 3q9 2 12.5 5.5t3.5 13.5v145 h-74q-16 0 -21.5 4.5t-5.5 18.5v56q0 14 5.5 19.5t21.5 5.5h176q14 0 19 -6t5 -19v-290q0 -18 -4.5 -25.5t-21.5 -12.5q-42 -11 -92 -17t-95 -6q-82 0 -131.5 14.5t-82.5 47.5q-38 37 -53 99t-15 153v39q0 179 78 251q36 33 89 47t124 14q24 0 49 -3.5t48.5 -8.5t44 -12.5 t34.5 -14.5zM256 794q0 27 19.5 47t47.5 20t47.5 -20t19.5 -47q0 -29 -19.5 -48.5t-47.5 -19.5t-47.5 19.5t-19.5 48.5z" />
<glyph unicode="&#x121;" horiz-adv-x="525" d="M40 0zM256 402q-28 0 -43.5 -5.5t-27.5 -17.5q-15 -15 -19.5 -43.5t-4.5 -79.5v-23q0 -51 4 -77.5t17 -42.5q11 -14 28.5 -19.5t41.5 -5.5q28 0 45.5 6t28.5 20q20 23 20 74v116q0 26 -4 44.5t-15 30.5q-22 23 -71 23zM346 26q-12 -14 -40.5 -24.5t-68.5 -10.5 q-104 0 -150.5 55.5t-46.5 182.5v34q0 125 48 180.5t151 55.5q45 0 78 -13t53 -36h2l6 24q2 10 7.5 13t18.5 3h37q24 0 24 -23v-460q0 -48 -10.5 -84t-34.5 -60q-26 -25 -67.5 -37.5t-102.5 -12.5q-42 0 -82 6.5t-68 17.5q-12 5 -14.5 10.5t0.5 16.5l14 45q5 14 10 17.5 t17 0.5q29 -7 60.5 -12t57.5 -5q57 0 81 24q20 21 20 70v22zM188 632q0 27 19.5 47t47.5 20t47.5 -20t19.5 -47q0 -29 -19.5 -48.5t-47.5 -19.5t-47.5 19.5t-19.5 48.5z" />
<glyph unicode="&#x122;" horiz-adv-x="593" d="M48 0zM515 617q17 -9 10 -31l-19 -57q-3 -11 -11.5 -13.5t-18.5 2.5q-28 14 -68 24t-76 10q-38 0 -66.5 -8t-47.5 -29q-22 -24 -31.5 -67.5t-9.5 -112.5v-22q0 -37 1.5 -64.5t5 -48.5t10 -36.5t15.5 -27.5q17 -23 45 -32t70 -9q26 0 46 1t31 3q9 2 12.5 5.5t3.5 13.5v145 h-74q-16 0 -21.5 4.5t-5.5 18.5v56q0 14 5.5 19.5t21.5 5.5h176q14 0 19 -6t5 -19v-290q0 -18 -4.5 -25.5t-21.5 -12.5q-42 -11 -92 -17t-95 -6q-82 0 -131.5 14.5t-82.5 47.5q-38 37 -53 99t-15 153v39q0 179 78 251q36 33 89 47t124 14q24 0 49 -3.5t48.5 -8.5t44 -12.5 t34.5 -14.5zM340 -63q22 0 34.5 -11.5t12.5 -38.5v-18q0 -40 -18 -76.5t-52 -69.5q-15 -15 -28 -1l-19 18q-7 7 -7 11.5t5 10.5q9 11 21 26t17 27q3 7 -3 10q-16 8 -23 17.5t-7 30.5v20q0 22 13 33t33 11h21z" />
<glyph unicode="&#x123;" horiz-adv-x="525" d="M40 0zM256 402q-28 0 -43.5 -5.5t-27.5 -17.5q-15 -15 -19.5 -43.5t-4.5 -79.5v-23q0 -51 4 -77.5t17 -42.5q11 -14 28.5 -19.5t41.5 -5.5q28 0 45.5 6t28.5 20q20 23 20 74v116q0 26 -4 44.5t-15 30.5q-22 23 -71 23zM346 26q-12 -14 -40.5 -24.5t-68.5 -10.5 q-104 0 -150.5 55.5t-46.5 182.5v34q0 125 48 180.5t151 55.5q45 0 78 -13t53 -36h2l6 24q2 10 7.5 13t18.5 3h37q24 0 24 -23v-460q0 -48 -10.5 -84t-34.5 -60q-26 -25 -67.5 -37.5t-102.5 -12.5q-42 0 -82 6.5t-68 17.5q-12 5 -14.5 10.5t0.5 16.5l14 45q5 14 10 17.5 t17 0.5q29 -7 60.5 -12t57.5 -5q57 0 81 24q20 21 20 70v22zM241.012 561.996q-21.998 0 -34.498 11.499q-12.499 11.5 -12.499 38.498v17.999q0 39.9971 17.999 76.4951t51.9971 69.4961q14.999 14.999 27.998 1l18.999 -17.999q7 -7 7 -11.5q0 -4.49902 -5 -10.499 q-9 -10.999 -20.999 -25.998t-16.999 -26.999q-3 -6.99902 3 -9.99902q15.999 -7.99902 22.999 -17.499q6.99902 -9.49902 6.99902 -30.498v-19.999q0 -21.998 -12.999 -32.998q-12.999 -10.999 -32.998 -10.999h-20.999z" />
<glyph unicode="&#x124;" horiz-adv-x="632" d="M68 0zM564 25q0 -16 -5 -20.5t-22 -4.5h-72q-17 0 -22 4.5t-5 20.5v252h-244v-252q0 -16 -5 -20.5t-22 -4.5h-72q-17 0 -22 4.5t-5 20.5v597q0 16 5 20.5t22 4.5h72q17 0 22 -4.5t5 -20.5v-242h244v242q0 16 5 20.5t22 4.5h72q17 0 22 -4.5t5 -20.5v-597zM461 761 q8 -8 6 -16t-8 -13l-28 -21q-8 -7 -16 -7t-18 9l-81 78h-3l-78 -78q-9 -10 -17.5 -9.5t-16.5 7.5l-28 21q-6 5 -8 13t6 16l91 109q6 8 12 9.5t13 1.5h57q6 0 12 -1.5t13 -9.5z" />
<glyph unicode="&#x125;" horiz-adv-x="525" d="M0 0zM351 304q0 30 -4.5 48t-16.5 30q-21 21 -64 21q-26 0 -41 -4.5t-25 -13.5t-15.5 -23.5t-5.5 -45.5v-291q0 -15 -5.5 -20t-22.5 -5h-63q-17 0 -22.5 5t-5.5 20v627q0 15 5.5 20t22.5 5h63q17 0 22.5 -5t5.5 -20v-189q20 16 49 26t74 10t81.5 -15.5t60.5 -54.5 q16 -26 21 -59.5t5 -71.5v-273q0 -15 -5.5 -20t-22.5 -5h-63q-17 0 -22.5 5t-5.5 20v279zM261 773q8 -8 6 -16t-8 -13l-28 -21q-8 -7 -16 -7t-18 9l-81 78h-3l-78 -78q-9 -10 -17.5 -9.5t-16.5 7.5l-28 21q-6 5 -8 13t6 16l91 109q6 8 12 9.5t13 1.5h57q6 0 12 -1.5t13 -9.5 z" />
<glyph unicode="&#x126;" horiz-adv-x="632" d="M564 555h33q15 0 19.5 -6.5t4.5 -17.5v-37q0 -17 -8 -19.5t-16 -2.5h-33v-443q0 -17 -6 -23t-23 -6h-68q-17 0 -23 6t-6 23v248h-244v-248q0 -17 -6 -23t-23 -6h-68q-17 0 -23 6t-6 23v443h-33q-14 0 -19 6t-5 18v35q0 11 5 17.5t19 6.5h33v63q0 17 6 23t23 6h68 q17 0 23 -6t6 -23v-63h244v63q0 17 6 23t23 6h68q17 0 23 -6t6 -23v-63zM438 380v92h-244v-92h244z" />
<glyph unicode="&#x127;" horiz-adv-x="525" d="M351 304q0 30 -4.5 48t-16.5 30q-21 21 -64 21q-26 0 -41 -4.5t-25 -13.5t-15.5 -23.5t-5.5 -45.5v-291q0 -15 -5.5 -20t-22.5 -5h-63q-17 0 -22.5 5t-5.5 20v514h-26q-14 0 -19 6t-5 18v35q0 11 5 17.5t19 6.5h26v30q0 15 5.5 20t22.5 5h63q17 0 22.5 -5t5.5 -20v-30 h101q15 0 19.5 -6.5t4.5 -17.5v-37q0 -17 -8 -19.5t-16 -2.5h-101v-76q20 16 49 26t74 10t81.5 -15.5t60.5 -54.5q16 -26 21 -59.5t5 -71.5v-273q0 -15 -5.5 -20t-22.5 -5h-63q-17 0 -22.5 5t-5.5 20v279z" />
<glyph unicode="&#x128;" horiz-adv-x="270" d="M0 0zM198 25q0 -16 -5 -20.5t-22 -4.5h-72q-17 0 -22 4.5t-5 20.5v597q0 16 5 20.5t22 4.5h72q17 0 22 -4.5t5 -20.5v-597zM-21 730q-8 5 -9.5 11.5t3.5 17.5q38 84 102 84q20 0 33.5 -5t27.5 -14l27 -17q11 -7 19 -10.5t16 -3.5q10 0 20.5 8t22.5 27q5 8 12.5 8t15.5 -5 l22 -15q9 -6 10.5 -12t-3.5 -17q-22 -39 -49.5 -59t-56.5 -20q-17 0 -31.5 5t-28.5 14l-27 18q-9 6 -15.5 9t-14.5 3q-9 0 -19.5 -7.5t-23.5 -28.5q-6 -10 -12 -11t-16 5z" />
<glyph unicode="&#x129;" horiz-adv-x="245" d="M0 0zM182 25q0 -15 -5.5 -20t-22.5 -5h-63q-17 0 -22.5 5t-5.5 20v440q0 15 5.5 20t22.5 5h63q17 0 22.5 -5t5.5 -20v-440zM-34 578q-8 5 -9.5 11.5t3.5 17.5q38 84 102 84q20 0 33.5 -5t27.5 -14l27 -17q11 -7 19 -10.5t16 -3.5q10 0 20.5 8t22.5 27q5 8 12.5 8t15.5 -5 l22 -15q9 -6 10.5 -12t-3.5 -17q-22 -39 -49.5 -59t-56.5 -20q-17 0 -31.5 5t-28.5 14l-27 18q-9 6 -15.5 9t-14.5 3q-9 0 -19.5 -7.5t-23.5 -28.5q-6 -10 -12 -11t-16 5z" />
<glyph unicode="&#x12a;" horiz-adv-x="270" d="M5 0zM198 25q0 -16 -5 -20.5t-22 -4.5h-72q-17 0 -22 4.5t-5 20.5v597q0 16 5 20.5t22 4.5h72q17 0 22 -4.5t5 -20.5v-597zM245 814q15 0 19.5 -6.5t4.5 -17.5v-37q0 -17 -8 -19.5t-16 -2.5h-216q-14 0 -19 6t-5 18v35q0 11 5 17.5t19 6.5h216z" />
<glyph unicode="&#x12b;" horiz-adv-x="245" d="M0 0zM182 25q0 -15 -5.5 -20t-22.5 -5h-63q-17 0 -22.5 5t-5.5 20v440q0 15 5.5 20t22.5 5h63q17 0 22.5 -5t5.5 -20v-440zM233 662q15 0 19.5 -6.5t4.5 -17.5v-37q0 -17 -8 -19.5t-16 -2.5h-216q-14 0 -19 6t-5 18v35q0 11 5 17.5t19 6.5h216z" />
<glyph unicode="&#x12c;" horiz-adv-x="270" d="M0 0zM198 25q0 -16 -5 -20.5t-22 -4.5h-72q-17 0 -22 4.5t-5 20.5v597q0 16 5 20.5t22 4.5h72q17 0 22 -4.5t5 -20.5v-597zM137 706q-58 0 -97.5 30t-55.5 84q-4 11 -1.5 16t15.5 10l35 12q10 3 16.5 2t11.5 -14q14 -32 32.5 -46t43.5 -14t43.5 14t32.5 46q5 13 11.5 14 t16.5 -2l35 -12q13 -5 15.5 -10t-1.5 -16q-16 -54 -55.5 -84t-97.5 -30z" />
<glyph unicode="&#x12d;" horiz-adv-x="245" d="M0 0zM182 25q0 -15 -5.5 -20t-22.5 -5h-63q-17 0 -22.5 5t-5.5 20v440q0 15 5.5 20t22.5 5h63q17 0 22.5 -5t5.5 -20v-440zM124 551q-58 0 -97.5 30t-55.5 84q-4 11 -1.5 16t15.5 10l35 12q10 3 16.5 2t11.5 -14q14 -32 32.5 -46t43.5 -14t43.5 14t32.5 46q5 13 11.5 14 t16.5 -2l35 -12q13 -5 15.5 -10t-1.5 -16q-16 -54 -55.5 -84t-97.5 -30z" />
<glyph unicode="&#x12e;" horiz-adv-x="270" d="M72 618q0 17 6 23t23 6h68q17 0 23 -6t6 -23v-592q0 -12 -2 -17t-12 -7q-25 -6 -45.5 -17t-35.5 -25t-23 -30.5t-8 -32.5q0 -32 32 -32q28 0 52 11q12 5 15 -8l9 -34q2 -8 -0.5 -12t-13.5 -9q-33 -14 -75 -14q-51 0 -78 21.5t-27 69.5q0 32 19 67t67 64v597z" />
<glyph unicode="&#x12f;" horiz-adv-x="245" d="M182 25q0 -12 -3 -16.5t-12 -8.5q-23 -9 -40.5 -22.5t-29.5 -27.5t-18 -28.5t-6 -24.5q0 -32 32 -32q11 0 24.5 2.5t22.5 6.5q11 5 14.5 3t5.5 -9l9 -34q2 -8 -0.5 -12t-13.5 -9q-33 -14 -75 -14q-51 0 -78 20.5t-27 62.5q0 32 19 65.5t57 59.5v458q0 15 5.5 20t22.5 5 h63q17 0 22.5 -5t5.5 -20v-440zM195 611q0 -34 -19.5 -52t-50.5 -18h-5q-38 0 -54 18t-16 52v6q0 36 20.5 52.5t49.5 16.5h5q31 0 50.5 -16.5t19.5 -52.5v-6z" />
<glyph unicode="&#x130;" horiz-adv-x="270" d="M69 0zM198 25q0 -16 -5 -20.5t-22 -4.5h-72q-17 0 -22 4.5t-5 20.5v597q0 16 5 20.5t22 4.5h72q17 0 22 -4.5t5 -20.5v-597zM69 794q0 27 19.5 47t47.5 20t47.5 -20t19.5 -47q0 -29 -19.5 -48.5t-47.5 -19.5t-47.5 19.5t-19.5 48.5z" />
<glyph unicode="&#x131;" horiz-adv-x="245" d="M182 25q0 -15 -5.5 -20t-22.5 -5h-63q-17 0 -22.5 5t-5.5 20v440q0 15 5.5 20t22.5 5h63q17 0 22.5 -5t5.5 -20v-440z" />
<glyph unicode="&#x132;" horiz-adv-x="612" d="M72 0zM198 25q0 -16 -5 -20.5t-22 -4.5h-72q-17 0 -22 4.5t-5 20.5v597q0 16 5 20.5t22 4.5h72q17 0 22 -4.5t5 -20.5v-597zM547 206q0 -58 -9 -95t-32 -62q-24 -26 -60 -37.5t-83 -11.5h-54q-17 0 -21.5 5.5t-4.5 19.5v54q0 15 4.5 20.5t21.5 5.5h43q20 0 34.5 6 t22.5 19q4 6 6 12.5t3.5 15.5t2 21.5t0.5 31.5v411q0 16 5 20.5t22 4.5h72q17 0 22 -4.5t5 -20.5v-416z" />
<glyph unicode="&#x133;" horiz-adv-x="490" d="M50 0zM195 611q0 -34 -19.5 -52t-50.5 -18h-5q-38 0 -54 18t-16 52v6q0 36 20.5 52.5t49.5 16.5h5q31 0 50.5 -16.5t19.5 -52.5v-6zM182 25q0 -15 -5.5 -20t-22.5 -5h-63q-17 0 -22.5 5t-5.5 20v440q0 15 5.5 20t22.5 5h63q17 0 22.5 -5t5.5 -20v-440zM441 611 q0 -34 -19.5 -52t-50.5 -18h-5q-38 0 -54.5 18t-16.5 52v6q0 36 21 52.5t50 16.5h5q31 0 50.5 -16.5t19.5 -52.5v-6zM428 32q0 -51 -9 -91.5t-33 -68.5q-20 -23 -53 -36t-79 -13h-44q-13 0 -17.5 4.5t-4.5 14.5v64q0 19 20 19h15q24 0 40 4.5t26 15.5q11 13 15.5 36t4.5 60 v424q0 15 5.5 20t22.5 5h63q17 0 22.5 -5t5.5 -20v-433z" />
<glyph unicode="&#x134;" horiz-adv-x="342" d="M13 0zM277 206q0 -58 -9 -95t-32 -62q-24 -26 -60 -37.5t-83 -11.5h-54q-17 0 -21.5 5.5t-4.5 19.5v54q0 15 4.5 20.5t21.5 5.5h43q20 0 34.5 6t22.5 19q4 6 6 12.5t3.5 15.5t2 21.5t0.5 31.5v411q0 16 5 20.5t22 4.5h72q17 0 22 -4.5t5 -20.5v-416zM357 761q8 -8 6 -16 t-8 -13l-28 -21q-8 -7 -16 -7t-18 9l-81 78h-3l-78 -78q-9 -10 -17.5 -9.5t-16.5 7.5l-28 21q-6 5 -8 13t6 16l91 109q6 8 12 9.5t13 1.5h57q6 0 12 -1.5t13 -9.5z" />
<glyph unicode="&#x135;" horiz-adv-x="245" d="M183 32q0 -51 -9 -91.5t-33 -68.5q-20 -23 -53 -36t-79 -13h-44q-13 0 -17.5 4.5t-4.5 14.5v64q0 19 20 19h15q24 0 40 4.5t26 15.5q11 13 15.5 36t4.5 60v424q0 15 5.5 20t22.5 5h63q17 0 22.5 -5t5.5 -20v-433zM268 599q8 -8 6 -16t-8 -13l-28 -21q-8 -7 -16 -7t-18 9 l-81 78h-3l-78 -78q-9 -10 -17.5 -9.5t-16.5 7.5l-28 21q-6 5 -8 13t6 16l91 109q6 8 12 9.5t13 1.5h57q6 0 12 -1.5t13 -9.5z" />
<glyph unicode="&#x136;" horiz-adv-x="558" d="M68 0zM194 25q0 -16 -5 -20.5t-22 -4.5h-72q-17 0 -22 4.5t-5 20.5v597q0 16 5 20.5t22 4.5h72q17 0 22 -4.5t5 -20.5v-238h26q11 0 16.5 3.5t10.5 11.5l152 228q8 11 15.5 15.5t24.5 4.5h80q18 0 23.5 -7.5t-4.5 -21.5l-185 -262q-3 -5 -6.5 -9.5t-3.5 -9.5 q0 -4 3.5 -9.5t6.5 -10.5l187 -292q16 -25 -20 -25h-81q-18 0 -25.5 4t-14.5 15l-148 247q-5 8 -10.5 11.5t-16.5 3.5h-30v-256zM299 -63q22 0 34.5 -11.5t12.5 -38.5v-18q0 -40 -18 -76.5t-52 -69.5q-15 -15 -28 -1l-19 18q-7 7 -7 11.5t5 10.5q9 11 21 26t17 27q3 7 -3 10 q-16 8 -23 17.5t-7 30.5v20q0 22 13 33t33 11h21z" />
<glyph unicode="&#x137;" horiz-adv-x="456" d="M59 0zM178 25q0 -15 -5.5 -20t-22.5 -5h-63q-17 0 -22.5 5t-5.5 20v627q0 15 5.5 20t22.5 5h63q17 0 22.5 -5t5.5 -20v-342h14q9 0 13 7l105 157q7 10 12 13t21 3h80q31 0 15 -23l-136 -197q-9 -12 0 -25l142 -219q8 -11 6 -18.5t-17 -7.5h-82q-16 0 -23 3.5t-15 17.5 l-108 180q-5 7 -13 7h-14v-183zM245 -63q22 0 34.5 -11.5t12.5 -38.5v-18q0 -40 -18 -76.5t-52 -69.5q-15 -15 -28 -1l-19 18q-7 7 -7 11.5t5 10.5q9 11 21 26t17 27q3 7 -3 10q-16 8 -23 17.5t-7 30.5v20q0 22 13 33t33 11h21z" />
<glyph unicode="&#x138;" horiz-adv-x="456" d="M178 25q0 -15 -5.5 -20t-22.5 -5h-63q-17 0 -22.5 5t-5.5 20v440q0 15 5.5 20t22.5 5h63q17 0 22.5 -5t5.5 -20v-155h14q9 0 13 7l105 157q7 10 12 13t21 3h80q31 0 15 -23l-136 -197q-9 -12 0 -25l142 -219q8 -11 6 -18.5t-17 -7.5h-82q-16 0 -23 3.5t-15 17.5l-108 180 q-5 7 -13 7h-14v-183z" />
<glyph unicode="&#x139;" horiz-adv-x="436" d="M54 0zM194 122q0 -19 19 -19h168q17 0 22 -5t5 -19v-55q0 -14 -5 -19t-22 -5h-212q-55 0 -79 24q-12 12 -17 28.5t-5 43.5v526q0 16 5 20.5t22 4.5h72q17 0 22 -4.5t5 -20.5v-500zM236 865q12 7 18.5 5t12.5 -13l29 -53q7 -13 4.5 -20t-16.5 -13l-170 -71 q-13 -5 -21.5 -1.5t-13.5 12.5l-18 31q-7 11 -5.5 18t9.5 12z" />
<glyph unicode="&#x13a;" horiz-adv-x="285" d="M29 0zM178 133q0 -18 6.5 -25.5t22.5 -7.5h30q14 0 18.5 -5t4.5 -19v-52q0 -14 -5 -19t-18 -5h-67q-32 0 -50 5.5t-32 18.5q-15 15 -22 37.5t-7 60.5v530q0 15 5.5 20t22.5 5h63q17 0 22.5 -5t5.5 -20v-519zM204 895q11 8 17.5 6.5t13.5 -11.5l35 -50q8 -12 7 -19 t-15 -15l-162 -89q-11 -7 -20.5 -4.5t-15.5 11.5l-21 29q-14 21 1 31z" />
<glyph unicode="&#x13b;" horiz-adv-x="436" d="M68 0zM194 122q0 -19 19 -19h168q17 0 22 -5t5 -19v-55q0 -14 -5 -19t-22 -5h-212q-55 0 -79 24q-12 12 -17 28.5t-5 43.5v526q0 16 5 20.5t22 4.5h72q17 0 22 -4.5t5 -20.5v-500zM245 -63q22 0 34.5 -11.5t12.5 -38.5v-18q0 -40 -18 -76.5t-52 -69.5q-15 -15 -28 -1 l-19 18q-7 7 -7 11.5t5 10.5q9 11 21 26t17 27q3 7 -3 10q-16 8 -23 17.5t-7 30.5v20q0 22 13 33t33 11h21z" />
<glyph unicode="&#x13c;" horiz-adv-x="285" d="M59 0zM178 133q0 -18 6.5 -25.5t22.5 -7.5h30q14 0 18.5 -5t4.5 -19v-52q0 -14 -5 -19t-18 -5h-67q-32 0 -50 5.5t-32 18.5q-15 15 -22 37.5t-7 60.5v530q0 15 5.5 20t22.5 5h63q17 0 22.5 -5t5.5 -20v-519zM175 -63q22 0 34.5 -11.5t12.5 -38.5v-18q0 -40 -18 -76.5 t-52 -69.5q-15 -15 -28 -1l-19 18q-7 7 -7 11.5t5 10.5q9 11 21 26t17 27q3 7 -3 10q-16 8 -23 17.5t-7 30.5v20q0 22 13 33t33 11h21z" />
<glyph unicode="&#x13d;" horiz-adv-x="436" d="M68 0zM194 122q0 -19 19 -19h168q17 0 22 -5t5 -19v-55q0 -14 -5 -19t-22 -5h-212q-55 0 -79 24q-12 12 -17 28.5t-5 43.5v526q0 16 5 20.5t22 4.5h72q17 0 22 -4.5t5 -20.5v-500zM354 649q22 0 34.5 -11.5t12.5 -38.5v-18q0 -40 -18 -76.5t-52 -69.5q-15 -15 -28 -1 l-19 18q-7 7 -7 11.5t5 10.5q9 11 21 26t17 27q3 7 -3 10q-16 8 -23 17.5t-7 30.5v20q0 22 13 33t33 11h21z" />
<glyph unicode="&#x13e;" horiz-adv-x="293" d="M59 0zM178 133q0 -18 6.5 -25.5t22.5 -7.5h30q14 0 18.5 -5t4.5 -19v-52q0 -14 -5 -19t-18 -5h-67q-32 0 -50 5.5t-32 18.5q-15 15 -22 37.5t-7 60.5v530q0 15 5.5 20t22.5 5h63q17 0 22.5 -5t5.5 -20v-519zM296 725q22 0 34.5 -11.5t12.5 -38.5v-18q0 -40 -18 -76.5 t-52 -69.5q-15 -15 -28 -1l-19 18q-7 7 -7 11.5t5 10.5q9 11 21 26t17 27q3 7 -3 10q-16 8 -23 17.5t-7 30.5v20q0 22 13 33t33 11h21z" />
<glyph unicode="&#x13f;" horiz-adv-x="479" d="M68 0zM194 122q0 -19 19 -19h168q17 0 22 -5t5 -19v-55q0 -14 -5 -19t-22 -5h-212q-55 0 -79 24q-12 12 -17 28.5t-5 43.5v526q0 16 5 20.5t22 4.5h72q17 0 22 -4.5t5 -20.5v-500zM301 345q0 27 19.5 47t47.5 20t47.5 -20t19.5 -47q0 -29 -19.5 -48.5t-47.5 -19.5 t-47.5 19.5t-19.5 48.5z" />
<glyph unicode="&#x140;" horiz-adv-x="390" d="M59 0zM178 133q0 -18 6.5 -25.5t22.5 -7.5h30q14 0 18.5 -5t4.5 -19v-52q0 -14 -5 -19t-18 -5h-67q-32 0 -50 5.5t-32 18.5q-15 15 -22 37.5t-7 60.5v530q0 15 5.5 20t22.5 5h63q17 0 22.5 -5t5.5 -20v-519zM247 339q0 27 19.5 47t47.5 20t47.5 -20t19.5 -47 q0 -29 -19.5 -48.5t-47.5 -19.5t-47.5 19.5t-19.5 48.5z" />
<glyph unicode="&#x141;" horiz-adv-x="431" d="M169 0q-55 0 -79 24q-12 12 -17 28.5t-5 43.5v131l-56 -37q-21 -13 -21 8v79q0 9 2.5 15t12.5 13l62 41v272q0 17 6 23t23 6h68q17 0 23 -6t6 -23v-188l89 60q7 5 12 2.5t5 -13.5v-79q0 -9 -2.5 -15t-12.5 -13l-91 -61v-189q0 -19 19 -19h168q17 0 22 -5t5 -19v-55 q0 -14 -5 -19t-22 -5h-212z" />
<glyph unicode="&#x142;" horiz-adv-x="285" d="M178 454l80 52q17 10 17 -11v-75q0 -9 -2.5 -15t-12.5 -13l-82 -54v-205q0 -18 6.5 -25.5t22.5 -7.5h30q14 0 18.5 -5t4.5 -19v-52q0 -14 -5 -19t-18 -5h-67q-32 0 -50 5.5t-32 18.5q-15 15 -22 37.5t-7 60.5v139l-60 -39q-17 -10 -17 11v75q0 9 2.5 15t12.5 13l62 40 v276q0 15 5.5 20t22.5 5h63q17 0 22.5 -5t5.5 -20v-198z" />
<glyph unicode="&#x143;" horiz-adv-x="642" d="M68 0zM68 622q0 16 5 20.5t22 4.5h60q20 0 30 -5t19 -19l249 -412h4v411q0 16 5 20.5t22 4.5h63q17 0 22 -4.5t5 -20.5v-597q0 -16 -5 -20.5t-22 -4.5h-60q-20 0 -30 5t-19 19l-249 403h-4v-402q0 -16 -5 -20.5t-22 -4.5h-63q-17 0 -22 4.5t-5 20.5v597zM403 865 q12 7 18.5 5t12.5 -13l29 -53q7 -13 4.5 -20t-16.5 -13l-170 -71q-13 -5 -21.5 -1.5t-13.5 12.5l-18 31q-7 11 -5.5 18t9.5 12z" />
<glyph unicode="&#x144;" horiz-adv-x="525" d="M60 0zM470 25q0 -15 -5.5 -20t-22.5 -5h-63q-17 0 -22.5 5t-5.5 20v279q0 30 -4.5 48t-16.5 30q-11 11 -26.5 16t-39.5 5q-45 0 -64 -18q-10 -9 -15.5 -23.5t-5.5 -45.5v-291q0 -15 -5.5 -20t-22.5 -5h-63q-17 0 -22.5 5t-5.5 20v442q0 23 24 23h37q13 0 18.5 -3.5 t7.5 -14.5l5 -24h3q21 22 52.5 36.5t83.5 14.5q54 0 91 -15.5t61 -51.5q17 -26 22 -61t5 -73v-273zM342 719q11 8 17.5 6.5t13.5 -11.5l35 -50q8 -12 7 -19t-15 -15l-162 -89q-11 -7 -20.5 -4.5t-15.5 11.5l-21 29q-14 21 1 31z" />
<glyph unicode="&#x145;" horiz-adv-x="642" d="M68 0zM68 622q0 16 5 20.5t22 4.5h60q20 0 30 -5t19 -19l249 -412h4v411q0 16 5 20.5t22 4.5h63q17 0 22 -4.5t5 -20.5v-597q0 -16 -5 -20.5t-22 -4.5h-60q-20 0 -30 5t-19 19l-249 403h-4v-402q0 -16 -5 -20.5t-22 -4.5h-63q-17 0 -22 4.5t-5 20.5v597zM347 -63 q22 0 34.5 -11.5t12.5 -38.5v-18q0 -40 -18 -76.5t-52 -69.5q-15 -15 -28 -1l-19 18q-7 7 -7 11.5t5 10.5q9 11 21 26t17 27q3 7 -3 10q-16 8 -23 17.5t-7 30.5v20q0 22 13 33t33 11h21z" />
<glyph unicode="&#x146;" horiz-adv-x="525" d="M60 0zM470 25q0 -15 -5.5 -20t-22.5 -5h-63q-17 0 -22.5 5t-5.5 20v279q0 30 -4.5 48t-16.5 30q-11 11 -26.5 16t-39.5 5q-45 0 -64 -18q-10 -9 -15.5 -23.5t-5.5 -45.5v-291q0 -15 -5.5 -20t-22.5 -5h-63q-17 0 -22.5 5t-5.5 20v442q0 23 24 23h37q13 0 18.5 -3.5 t7.5 -14.5l5 -24h3q21 22 52.5 36.5t83.5 14.5q54 0 91 -15.5t61 -51.5q17 -26 22 -61t5 -73v-273zM279 -63q22 0 34.5 -11.5t12.5 -38.5v-18q0 -40 -18 -76.5t-52 -69.5q-15 -15 -28 -1l-19 18q-7 7 -7 11.5t5 10.5q9 11 21 26t17 27q3 7 -3 10q-16 8 -23 17.5t-7 30.5v20 q0 22 13 33t33 11h21z" />
<glyph unicode="&#x147;" horiz-adv-x="642" d="M68 0zM68 622q0 16 5 20.5t22 4.5h60q20 0 30 -5t19 -19l249 -412h4v411q0 16 5 20.5t22 4.5h63q17 0 22 -4.5t5 -20.5v-597q0 -16 -5 -20.5t-22 -4.5h-60q-20 0 -30 5t-19 19l-249 403h-4v-402q0 -16 -5 -20.5t-22 -4.5h-63q-17 0 -22 4.5t-5 20.5v597zM379 722 q-7 -8 -13 -9.5t-12 -1.5h-57q-7 0 -13 1.5t-12 9.5l-91 109q-8 8 -6 16t8 13l28 21q8 7 16.5 7.5t17.5 -9.5l78 -78h3l81 78q10 9 18 9t16 -7l28 -21q6 -5 8 -13t-6 -16z" />
<glyph unicode="&#x148;" horiz-adv-x="525" d="M60 0zM470 25q0 -15 -5.5 -20t-22.5 -5h-63q-17 0 -22.5 5t-5.5 20v279q0 30 -4.5 48t-16.5 30q-11 11 -26.5 16t-39.5 5q-45 0 -64 -18q-10 -9 -15.5 -23.5t-5.5 -45.5v-291q0 -15 -5.5 -20t-22.5 -5h-63q-17 0 -22.5 5t-5.5 20v442q0 23 24 23h37q13 0 18.5 -3.5 t7.5 -14.5l5 -24h3q21 22 52.5 36.5t83.5 14.5q54 0 91 -15.5t61 -51.5q17 -26 22 -61t5 -73v-273zM319 557q-7 -8 -13 -9.5t-12 -1.5h-57q-7 0 -13 1.5t-12 9.5l-91 109q-8 8 -6 16t8 13l28 21q8 7 16.5 7.5t17.5 -9.5l78 -78h3l81 78q10 9 18 9t16 -7l28 -21q6 -5 8 -13 t-6 -16z" />
<glyph unicode="&#x149;" horiz-adv-x="525" d="M0 0zM470 25q0 -15 -5.5 -20t-22.5 -5h-63q-17 0 -22.5 5t-5.5 20v279q0 30 -4.5 48t-16.5 30q-11 11 -26.5 16t-39.5 5q-45 0 -64 -18q-10 -9 -15.5 -23.5t-5.5 -45.5v-291q0 -15 -5.5 -20t-22.5 -5h-63q-17 0 -22.5 5t-5.5 20v442q0 23 24 23h37q13 0 18.5 -3.5 t7.5 -14.5l5 -24h3q21 22 52.5 36.5t83.5 14.5q54 0 91 -15.5t61 -51.5q17 -26 22 -61t5 -73v-273zM-7 756q30 0 48 -15.5t18 -47.5v-19q0 -21 -7 -48.5t-19.5 -56t-29 -56t-35.5 -49.5q-9 -11 -16 -12t-22 7l-25 14q-14 8 -14.5 15t5.5 15q11 14 22.5 32.5t20.5 34.5 q10 17 10 26.5t-9 15.5l-11 7q-11 7 -16.5 17.5t-5.5 31.5v30q0 29 18 43.5t49 14.5h19z" />
<glyph unicode="&#x14a;" horiz-adv-x="642" d="M319 -117q0 15 4.5 20.5t21.5 5.5h43q20 0 34.5 6t22.5 19q7 11 9 24t3 42q-23 0 -33.5 4t-18.5 20l-216 403h-4v-398q0 -17 -6 -23t-23 -6h-59q-17 0 -23 6t-6 23v583q0 20 10.5 27.5t34.5 7.5h35q26 0 36.5 -4.5t19.5 -19.5l249 -452h4v447q0 17 6 23t23 6h59 q17 0 23 -6t6 -23v-599q0 -58 -9 -95t-32 -62q-24 -26 -60 -37.5t-83 -11.5h-45q-17 0 -21.5 5.5t-4.5 19.5v45z" />
<glyph unicode="&#x14b;" horiz-adv-x="525" d="M351 304q0 30 -4.5 48t-16.5 30q-11 11 -26.5 16t-39.5 5q-45 0 -64 -18q-10 -9 -15.5 -23.5t-5.5 -45.5v-291q0 -15 -5.5 -20t-22.5 -5h-63q-17 0 -22.5 5t-5.5 20v442q0 23 24 23h37q13 0 18.5 -3.5t7.5 -14.5l5 -24h3q21 22 52.5 36.5t83.5 14.5q54 0 91 -15.5 t61 -51.5q17 -26 22 -61t5 -73v-266q0 -51 -9 -91.5t-33 -68.5q-20 -23 -53 -36t-79 -13h-44q-13 0 -17.5 4.5t-4.5 14.5v57q0 19 20 19h15q24 0 40 4.5t26 15.5q11 13 15.5 36t4.5 60v270z" />
<glyph unicode="&#x14c;" horiz-adv-x="618" d="M48 0zM441 334q0 50 -5 96.5t-28 80.5q-28 41 -99 41t-99 -41q-23 -34 -28 -80.5t-5 -96.5v-21q0 -50 5 -96.5t28 -80.5q28 -41 99 -41t99 41q23 34 28 80.5t5 96.5v21zM570 303q0 -78 -16.5 -141.5t-57.5 -105.5q-30 -31 -75.5 -48t-111.5 -17q-70 0 -114 16.5t-75 48.5 q-38 42 -55 105.5t-17 141.5v41q0 78 17 141.5t55 105.5q31 32 75 48.5t114 16.5q66 0 111.5 -17t75.5 -48q41 -42 57.5 -105.5t16.5 -141.5v-41zM420 814q15 0 19.5 -6.5t4.5 -17.5v-37q0 -17 -8 -19.5t-16 -2.5h-216q-14 0 -19 6t-5 18v35q0 11 5 17.5t19 6.5h216z" />
<glyph unicode="&#x14d;" horiz-adv-x="500" d="M40 0zM250 86q27 0 41.5 7t25.5 20q13 17 17.5 46.5t4.5 75.5v21q0 46 -4.5 75t-17.5 46q-11 14 -25.5 20.5t-41.5 6.5t-41.5 -6.5t-25.5 -20.5q-13 -17 -17.5 -46t-4.5 -75v-21q0 -46 4.5 -75.5t17.5 -46.5q11 -13 25.5 -20t41.5 -7zM250 499q57 0 95.5 -15t63.5 -44 q28 -32 39.5 -77.5t11.5 -102.5v-30q0 -58 -11.5 -103t-39.5 -77q-25 -28 -64 -43.5t-95 -15.5t-95 15.5t-64 43.5q-28 32 -39.5 77t-11.5 103v30q0 57 11.5 102.5t39.5 77.5q25 29 63.5 44t95.5 15zM358 662q15 0 19.5 -6.5t4.5 -17.5v-37q0 -17 -8 -19.5t-16 -2.5h-216 q-14 0 -19 6t-5 18v35q0 11 5 17.5t19 6.5h216z" />
<glyph unicode="&#x14e;" horiz-adv-x="618" d="M48 0zM441 334q0 50 -5 96.5t-28 80.5q-28 41 -99 41t-99 -41q-23 -34 -28 -80.5t-5 -96.5v-21q0 -50 5 -96.5t28 -80.5q28 -41 99 -41t99 41q23 34 28 80.5t5 96.5v21zM570 303q0 -78 -16.5 -141.5t-57.5 -105.5q-30 -31 -75.5 -48t-111.5 -17q-70 0 -114 16.5t-75 48.5 q-38 42 -55 105.5t-17 141.5v41q0 78 17 141.5t55 105.5q31 32 75 48.5t114 16.5q66 0 111.5 -17t75.5 -48q41 -42 57.5 -105.5t16.5 -141.5v-41zM309 706q-58 0 -97.5 30t-55.5 84q-4 11 -1.5 16t15.5 10l35 12q10 3 16.5 2t11.5 -14q14 -32 32.5 -46t43.5 -14t43.5 14 t32.5 46q5 13 11.5 14t16.5 -2l35 -12q13 -5 15.5 -10t-1.5 -16q-16 -54 -55.5 -84t-97.5 -30z" />
<glyph unicode="&#x14f;" horiz-adv-x="500" d="M40 0zM250 86q27 0 41.5 7t25.5 20q13 17 17.5 46.5t4.5 75.5v21q0 46 -4.5 75t-17.5 46q-11 14 -25.5 20.5t-41.5 6.5t-41.5 -6.5t-25.5 -20.5q-13 -17 -17.5 -46t-4.5 -75v-21q0 -46 4.5 -75.5t17.5 -46.5q11 -13 25.5 -20t41.5 -7zM250 499q57 0 95.5 -15t63.5 -44 q28 -32 39.5 -77.5t11.5 -102.5v-30q0 -58 -11.5 -103t-39.5 -77q-25 -28 -64 -43.5t-95 -15.5t-95 15.5t-64 43.5q-28 32 -39.5 77t-11.5 103v30q0 57 11.5 102.5t39.5 77.5q25 29 63.5 44t95.5 15zM251 551q-58 0 -97.5 30t-55.5 84q-4 11 -1.5 16t15.5 10l35 12 q10 3 16.5 2t11.5 -14q14 -32 32.5 -46t43.5 -14t43.5 14t32.5 46q5 13 11.5 14t16.5 -2l35 -12q13 -5 15.5 -10t-1.5 -16q-16 -54 -55.5 -84t-97.5 -30z" />
<glyph unicode="&#x150;" horiz-adv-x="618" d="M48 0zM441 334q0 50 -5 96.5t-28 80.5q-28 41 -99 41t-99 -41q-23 -34 -28 -80.5t-5 -96.5v-21q0 -50 5 -96.5t28 -80.5q28 -41 99 -41t99 41q23 34 28 80.5t5 96.5v21zM570 303q0 -78 -16.5 -141.5t-57.5 -105.5q-30 -31 -75.5 -48t-111.5 -17q-70 0 -114 16.5t-75 48.5 q-38 42 -55 105.5t-17 141.5v41q0 78 17 141.5t55 105.5q31 32 75 48.5t114 16.5q66 0 111.5 -17t75.5 -48q41 -42 57.5 -105.5t16.5 -141.5v-41zM289 887q17 15 33 -4l39 -46q9 -11 7.5 -17.5t-13.5 -15.5l-143 -109q-22 -13 -39 5l-22 26q-15 19 -2 32zM494 887 q10 9 17.5 7.5t15.5 -11.5l39 -46q9 -11 8 -17t-14 -16l-143 -109q-11 -8 -21 -6t-18 11l-22 26q-15 19 -2 32z" />
<glyph unicode="&#x151;" horiz-adv-x="500" d="M40 0zM250 86q27 0 41.5 7t25.5 20q13 17 17.5 46.5t4.5 75.5v21q0 46 -4.5 75t-17.5 46q-11 14 -25.5 20.5t-41.5 6.5t-41.5 -6.5t-25.5 -20.5q-13 -17 -17.5 -46t-4.5 -75v-21q0 -46 4.5 -75.5t17.5 -46.5q11 -13 25.5 -20t41.5 -7zM250 499q57 0 95.5 -15t63.5 -44 q28 -32 39.5 -77.5t11.5 -102.5v-30q0 -58 -11.5 -103t-39.5 -77q-25 -28 -64 -43.5t-95 -15.5t-95 15.5t-64 43.5q-28 32 -39.5 77t-11.5 103v30q0 57 11.5 102.5t39.5 77.5q25 29 63.5 44t95.5 15zM239 734q11 8 17.5 7t14.5 -10l39 -47q10 -11 9 -18t-14 -16l-145 -106 q-21 -14 -38 4l-22 27q-15 19 -2 31zM455 734q11 8 17.5 7t14.5 -10l39 -47q10 -11 9 -18t-14 -16l-145 -106q-21 -14 -38 4l-22 27q-15 19 -2 31z" />
<glyph unicode="&#x152;" horiz-adv-x="860" d="M538 282q0 -41 1.5 -77t5.5 -74q2 -17 9 -22.5t23 -5.5h217q17 0 21.5 -5t4.5 -19v-55q0 -14 -4.5 -19t-21.5 -5h-229q-38 0 -64 5t-43 19q-5 3 -8 7t-6 9q-29 -23 -65.5 -36t-82.5 -13q-60 0 -103.5 15t-74.5 47q-38 42 -54 107t-16 143v41q0 78 15.5 142.5t53.5 106.5 q31 32 75.5 47.5t108.5 15.5q45 0 81 -13t65 -34q5 8 15 16q17 14 42.5 18t60.5 4h230q17 0 21 -5t4 -19v-55q0 -14 -4 -19t-21 -5h-218q-14 0 -22.5 -6.5t-10.5 -23.5q-2 -26 -4 -59t-2 -70h224q17 0 21 -5t4 -19v-55q0 -14 -4 -19t-21 -5h-224zM309 95q33 0 62.5 11.5 t49.5 30.5q-4 38 -5.5 81.5t-1.5 84.5v41q0 37 1.5 80t4.5 81q-20 21 -49.5 34t-61.5 13q-71 0 -99 -41q-23 -34 -28 -80.5t-5 -96.5v-21q0 -50 5 -96.5t28 -80.5q28 -41 99 -41z" />
<glyph unicode="&#x153;" horiz-adv-x="778" d="M250 499q51 0 86 -14t62 -40q27 26 62.5 40t86.5 14t84 -11.5t57 -33.5q12 -11 21.5 -25.5t16 -34.5t10 -46.5t3.5 -62.5v-68q0 -16 -5.5 -22.5t-21.5 -6.5h-250q1 -59 25 -80q10 -9 31 -14.5t57 -5.5q25 0 56 6t52 15q9 4 16 2t12 -18l13 -48q3 -11 -0.5 -17t-17.5 -11 q-32 -12 -69.5 -19t-75.5 -7q-59 0 -98 12.5t-66 40.5q-48 -53 -147 -53q-56 0 -95 15.5t-64 43.5q-28 32 -39.5 77t-11.5 103v30q0 57 11.5 102.5t39.5 77.5q25 29 63.5 44t95.5 15zM250 86q27 0 42 7t26 20q13 17 17.5 46.5t4.5 75.5v21q0 46 -4.5 75t-17.5 46 q-11 14 -26 20.5t-42 6.5t-41.5 -6.5t-25.5 -20.5q-13 -17 -17.5 -46t-4.5 -75v-21q0 -46 4.5 -75.5t17.5 -46.5q11 -13 25.5 -20t41.5 -7zM543 404q-38 0 -57 -20q-14 -14 -20 -40t-6 -62h147q13 0 13 14q0 33 -4 55t-15 34q-9 10 -22 14.5t-36 4.5z" />
<glyph unicode="&#x154;" horiz-adv-x="557" d="M68 0zM256 554h-27.5t-22.5 -2q-12 -1 -12 -14v-180h44q44 0 69.5 4.5t39.5 14.5q16 11 22 30.5t6 45.5v12q0 26 -4.5 41.5t-15.5 26.5q-12 11 -34.5 16t-64.5 5zM194 25q0 -16 -5 -20.5t-22 -4.5h-72q-17 0 -22 4.5t-5 20.5v581q0 23 7.5 31t27.5 11q28 4 62.5 6t82.5 2 q74 0 123 -10.5t82 -36.5q51 -41 51 -141v-17q0 -69 -30 -116t-94 -69l148 -245q13 -21 -23 -21h-73q-18 0 -26.5 5.5t-15.5 16.5l-125 223q-5 10 -20 10h-51v-230zM345 865q12 7 18.5 5t12.5 -13l29 -53q7 -13 4.5 -20t-16.5 -13l-170 -71q-13 -5 -21.5 -1.5t-13.5 12.5 l-18 31q-7 11 -5.5 18t9.5 12z" />
<glyph unicode="&#x155;" horiz-adv-x="345" d="M60 0zM152 425h2q23 34 52.5 49.5t80.5 15.5h14q16 0 22 -4.5t6 -19.5v-53q0 -13 -5.5 -18t-22.5 -5h-18q-33 0 -52 -7t-29 -18t-16.5 -28.5t-6.5 -56.5v-255q0 -15 -5.5 -20t-22.5 -5h-63q-17 0 -22.5 5t-5.5 20v442q0 23 24 23h35q13 0 18.5 -3.5t7.5 -14.5zM277 719 q11 8 17.5 6.5t13.5 -11.5l35 -50q8 -12 7 -19t-15 -15l-162 -89q-11 -7 -20.5 -4.5t-15.5 11.5l-21 29q-14 21 1 31z" />
<glyph unicode="&#x156;" horiz-adv-x="557" d="M68 0zM256 554h-27.5t-22.5 -2q-12 -1 -12 -14v-180h44q44 0 69.5 4.5t39.5 14.5q16 11 22 30.5t6 45.5v12q0 26 -4.5 41.5t-15.5 26.5q-12 11 -34.5 16t-64.5 5zM194 25q0 -16 -5 -20.5t-22 -4.5h-72q-17 0 -22 4.5t-5 20.5v581q0 23 7.5 31t27.5 11q28 4 62.5 6t82.5 2 q74 0 123 -10.5t82 -36.5q51 -41 51 -141v-17q0 -69 -30 -116t-94 -69l148 -245q13 -21 -23 -21h-73q-18 0 -26.5 5.5t-15.5 16.5l-125 223q-5 10 -20 10h-51v-230zM295 -63q22 0 34.5 -11.5t12.5 -38.5v-18q0 -40 -18 -76.5t-52 -69.5q-15 -15 -28 -1l-19 18q-7 7 -7 11.5 t5 10.5q9 11 21 26t17 27q3 7 -3 10q-16 8 -23 17.5t-7 30.5v20q0 22 13 33t33 11h21z" />
<glyph unicode="&#x157;" horiz-adv-x="345" d="M54 0zM152 425h2q23 34 52.5 49.5t80.5 15.5h14q16 0 22 -4.5t6 -19.5v-53q0 -13 -5.5 -18t-22.5 -5h-18q-33 0 -52 -7t-29 -18t-16.5 -28.5t-6.5 -56.5v-255q0 -15 -5.5 -20t-22.5 -5h-63q-17 0 -22.5 5t-5.5 20v442q0 23 24 23h35q13 0 18.5 -3.5t7.5 -14.5zM131 -63 q22 0 34.5 -11.5t12.5 -38.5v-18q0 -40 -18 -76.5t-52 -69.5q-15 -15 -28 -1l-19 18q-7 7 -7 11.5t5 10.5q9 11 21 26t17 27q3 7 -3 10q-16 8 -23 17.5t-7 30.5v20q0 22 13 33t33 11h21z" />
<glyph unicode="&#x158;" horiz-adv-x="557" d="M68 0zM256 554h-27.5t-22.5 -2q-12 -1 -12 -14v-180h44q44 0 69.5 4.5t39.5 14.5q16 11 22 30.5t6 45.5v12q0 26 -4.5 41.5t-15.5 26.5q-12 11 -34.5 16t-64.5 5zM194 25q0 -16 -5 -20.5t-22 -4.5h-72q-17 0 -22 4.5t-5 20.5v581q0 23 7.5 31t27.5 11q28 4 62.5 6t82.5 2 q74 0 123 -10.5t82 -36.5q51 -41 51 -141v-17q0 -69 -30 -116t-94 -69l148 -245q13 -21 -23 -21h-73q-18 0 -26.5 5.5t-15.5 16.5l-125 223q-5 10 -20 10h-51v-230zM327 722q-7 -8 -13 -9.5t-12 -1.5h-57q-7 0 -13 1.5t-12 9.5l-91 109q-8 8 -6 16t8 13l28 21q8 7 16.5 7.5 t17.5 -9.5l78 -78h3l81 78q10 9 18 9t16 -7l28 -21q6 -5 8 -13t-6 -16z" />
<glyph unicode="&#x159;" horiz-adv-x="345" d="M38 0zM152 425h2q23 34 52.5 49.5t80.5 15.5h14q16 0 22 -4.5t6 -19.5v-53q0 -13 -5.5 -18t-22.5 -5h-18q-33 0 -52 -7t-29 -18t-16.5 -28.5t-6.5 -56.5v-255q0 -15 -5.5 -20t-22.5 -5h-63q-17 0 -22.5 5t-5.5 20v442q0 23 24 23h35q13 0 18.5 -3.5t7.5 -14.5zM244 557 q-7 -8 -13 -9.5t-12 -1.5h-57q-7 0 -13 1.5t-12 9.5l-91 109q-8 8 -6 16t8 13l28 21q8 7 16.5 7.5t17.5 -9.5l78 -78h3l81 78q10 9 18 9t16 -7l28 -21q6 -5 8 -13t-6 -16z" />
<glyph unicode="&#x15a;" horiz-adv-x="510" d="M38 0zM234 -9q-20 0 -43 2.5t-46 6.5t-44.5 9t-38.5 11q-14 5 -19 11.5t-2 20.5l11 58q2 14 10 17t18 -1q15 -6 34.5 -11.5t39.5 -10t40 -7t37 -2.5q35 0 58.5 4.5t38.5 17.5q12 10 16 25.5t4 38.5v8q0 38 -12 53q-9 11 -25.5 18t-42.5 13l-69 15q-48 11 -75 23t-47 34 q-38 41 -38 122v13q0 94 58 138q28 20 68.5 29t96.5 9q23 0 46 -2t44 -5.5t39.5 -7.5t31.5 -8t16.5 -9.5t0.5 -19.5l-15 -63q-4 -21 -31 -12q-33 11 -66 17t-63 6q-32 0 -50.5 -3.5t-29.5 -11.5t-17 -22t-6 -38v-8q0 -19 3.5 -30.5t12.5 -20.5q10 -10 27 -16t40 -11l73 -15 q46 -10 75 -24t48 -37q17 -21 23.5 -49t6.5 -66v-15q0 -47 -13.5 -85t-40.5 -62q-29 -26 -74 -36.5t-109 -10.5zM340 865q12 7 18.5 5t12.5 -13l29 -53q7 -13 4.5 -20t-16.5 -13l-170 -71q-13 -5 -21.5 -1.5t-13.5 12.5l-18 31q-7 11 -5.5 18t9.5 12z" />
<glyph unicode="&#x15b;" horiz-adv-x="433" d="M34 0zM206 -9q-39 0 -80 7.5t-73 21.5q-14 5 -16.5 11t0.5 19l11 49q6 24 28 15q27 -11 60.5 -18.5t59.5 -7.5q25 0 40 2.5t25 9.5q17 11 17 39v7q0 24 -13.5 34t-44.5 18l-60 14q-36 8 -55 18.5t-33 26.5q-30 33 -30 92v9q0 41 11.5 66t32.5 42t53 25t82 8q38 0 75.5 -6 t58.5 -14q11 -4 13 -8.5t0 -15.5l-12 -56q-2 -11 -8.5 -13.5t-16.5 0.5q-17 6 -45 11t-52 5q-47 0 -62 -11q-14 -10 -14 -32v-7q0 -23 14 -31.5t37 -13.5l62 -14q72 -17 101 -54q12 -17 17 -37t5 -46v-12q0 -69 -40 -108q-48 -45 -148 -45zM290 719q11 8 17.5 6.5 t13.5 -11.5l35 -50q8 -12 7 -19t-15 -15l-162 -89q-11 -7 -20.5 -4.5t-15.5 11.5l-21 29q-14 21 1 31z" />
<glyph unicode="&#x15c;" horiz-adv-x="510" d="M38 0zM234 -9q-20 0 -43 2.5t-46 6.5t-44.5 9t-38.5 11q-14 5 -19 11.5t-2 20.5l11 58q2 14 10 17t18 -1q15 -6 34.5 -11.5t39.5 -10t40 -7t37 -2.5q35 0 58.5 4.5t38.5 17.5q12 10 16 25.5t4 38.5v8q0 38 -12 53q-9 11 -25.5 18t-42.5 13l-69 15q-48 11 -75 23t-47 34 q-38 41 -38 122v13q0 94 58 138q28 20 68.5 29t96.5 9q23 0 46 -2t44 -5.5t39.5 -7.5t31.5 -8t16.5 -9.5t0.5 -19.5l-15 -63q-4 -21 -31 -12q-33 11 -66 17t-63 6q-32 0 -50.5 -3.5t-29.5 -11.5t-17 -22t-6 -38v-8q0 -19 3.5 -30.5t12.5 -20.5q10 -10 27 -16t40 -11l73 -15 q46 -10 75 -24t48 -37q17 -21 23.5 -49t6.5 -66v-15q0 -47 -13.5 -85t-40.5 -62q-29 -26 -74 -36.5t-109 -10.5zM401 761q8 -8 6 -16t-8 -13l-28 -21q-8 -7 -16 -7t-18 9l-81 78h-3l-78 -78q-9 -10 -17.5 -9.5t-16.5 7.5l-28 21q-6 5 -8 13t6 16l91 109q6 8 12 9.5t13 1.5 h57q6 0 12 -1.5t13 -9.5z" />
<glyph unicode="&#x15d;" horiz-adv-x="433" d="M34 0zM206 -9q-39 0 -80 7.5t-73 21.5q-14 5 -16.5 11t0.5 19l11 49q6 24 28 15q27 -11 60.5 -18.5t59.5 -7.5q25 0 40 2.5t25 9.5q17 11 17 39v7q0 24 -13.5 34t-44.5 18l-60 14q-36 8 -55 18.5t-33 26.5q-30 33 -30 92v9q0 41 11.5 66t32.5 42t53 25t82 8q38 0 75.5 -6 t58.5 -14q11 -4 13 -8.5t0 -15.5l-12 -56q-2 -11 -8.5 -13.5t-16.5 0.5q-17 6 -45 11t-52 5q-47 0 -62 -11q-14 -10 -14 -32v-7q0 -23 14 -31.5t37 -13.5l62 -14q72 -17 101 -54q12 -17 17 -37t5 -46v-12q0 -69 -40 -108q-48 -45 -148 -45zM364 599q8 -8 6 -16t-8 -13 l-28 -21q-8 -7 -16 -7t-18 9l-81 78h-3l-78 -78q-9 -10 -17.5 -9.5t-16.5 7.5l-28 21q-6 5 -8 13t6 16l91 109q6 8 12 9.5t13 1.5h57q6 0 12 -1.5t13 -9.5z" />
<glyph unicode="&#x15e;" horiz-adv-x="510" d="M417 38q-25 -23 -62 -33.5t-88 -12.5l-9 -50q8 2 14.5 2.5t16.5 0.5q31 0 56 -20t25 -64q0 -53 -31 -76t-87 -23q-20 0 -44 3.5t-41 8.5q-9 3 -12 7t-1 14l5 32q2 8 5.5 11t12.5 0q11 -4 27.5 -7t35.5 -3q22 0 32 6t10 22q0 14 -7 20t-26 6q-10 0 -17.5 -1t-17.5 -3 q-14 -3 -22 8l-8 12q-5 9 -4 18l17 77q-35 4 -71.5 11t-63.5 16q-14 5 -19 11.5t-2 20.5l11 58q2 14 10 17t18 -1q15 -6 34.5 -11.5t39.5 -10t40 -7t37 -2.5q35 0 58.5 4.5t38.5 17.5q12 10 16 25.5t4 38.5v8q0 38 -12 53q-9 11 -25.5 18t-42.5 13l-69 15q-48 11 -75 23 t-47 34q-38 41 -38 122v13q0 94 58 138q28 20 68.5 29t96.5 9q23 0 46 -2t44 -5.5t39.5 -7.5t31.5 -8t16.5 -9.5t0.5 -19.5l-15 -63q-4 -21 -31 -12q-33 11 -66 17t-63 6q-32 0 -50.5 -3.5t-29.5 -11.5t-17 -22t-6 -38v-8q0 -19 3.5 -30.5t12.5 -20.5q10 -10 27 -16t40 -11 l73 -15q46 -10 75 -24t48 -37q17 -21 23.5 -49t6.5 -66v-15q0 -47 -13.5 -85t-40.5 -62z" />
<glyph unicode="&#x15f;" horiz-adv-x="433" d="M354 36q-41 -38 -121 -44l-10 -50q8 2 14.5 2.5t16.5 0.5q31 0 56 -20t25 -64q0 -53 -31 -76t-87 -23q-20 0 -44 3.5t-41 8.5q-9 3 -12 7t-1 14l5 32q2 8 5.5 11t12.5 0q11 -4 27.5 -7t35.5 -3q22 0 32 6t10 22q0 14 -7 20t-26 6q-10 0 -17.5 -1t-17.5 -3q-14 -3 -22 8 l-8 12q-5 9 -4 18l17 77v1q-29 3 -57.5 9.5t-51.5 16.5q-14 5 -16.5 11t0.5 19l11 49q6 24 28 15q27 -11 60.5 -18.5t59.5 -7.5q25 0 40 2.5t25 9.5q17 11 17 39v7q0 24 -13.5 34t-44.5 18l-60 14q-36 8 -55 18.5t-33 26.5q-30 33 -30 92v9q0 41 11.5 66t32.5 42t53 25t82 8 q38 0 75.5 -6t58.5 -14q11 -4 13 -8.5t0 -15.5l-12 -56q-2 -11 -8.5 -13.5t-16.5 0.5q-17 6 -45 11t-52 5q-47 0 -62 -11q-14 -10 -14 -32v-7q0 -23 14 -31.5t37 -13.5l62 -14q72 -17 101 -54q12 -17 17 -37t5 -46v-12q0 -69 -40 -108z" />
<glyph unicode="&#x160;" horiz-adv-x="510" d="M38 0zM234 -9q-20 0 -43 2.5t-46 6.5t-44.5 9t-38.5 11q-14 5 -19 11.5t-2 20.5l11 58q2 14 10 17t18 -1q15 -6 34.5 -11.5t39.5 -10t40 -7t37 -2.5q35 0 58.5 4.5t38.5 17.5q12 10 16 25.5t4 38.5v8q0 38 -12 53q-9 11 -25.5 18t-42.5 13l-69 15q-48 11 -75 23t-47 34 q-38 41 -38 122v13q0 94 58 138q28 20 68.5 29t96.5 9q23 0 46 -2t44 -5.5t39.5 -7.5t31.5 -8t16.5 -9.5t0.5 -19.5l-15 -63q-4 -21 -31 -12q-33 11 -66 17t-63 6q-32 0 -50.5 -3.5t-29.5 -11.5t-17 -22t-6 -38v-8q0 -19 3.5 -30.5t12.5 -20.5q10 -10 27 -16t40 -11l73 -15 q46 -10 75 -24t48 -37q17 -21 23.5 -49t6.5 -66v-15q0 -47 -13.5 -85t-40.5 -62q-29 -26 -74 -36.5t-109 -10.5zM313 722q-7 -8 -13 -9.5t-12 -1.5h-57q-7 0 -13 1.5t-12 9.5l-91 109q-8 8 -6 16t8 13l28 21q8 7 16.5 7.5t17.5 -9.5l78 -78h3l81 78q10 9 18 9t16 -7l28 -21 q6 -5 8 -13t-6 -16z" />
<glyph unicode="&#x161;" horiz-adv-x="433" d="M34 0zM206 -9q-39 0 -80 7.5t-73 21.5q-14 5 -16.5 11t0.5 19l11 49q6 24 28 15q27 -11 60.5 -18.5t59.5 -7.5q25 0 40 2.5t25 9.5q17 11 17 39v7q0 24 -13.5 34t-44.5 18l-60 14q-36 8 -55 18.5t-33 26.5q-30 33 -30 92v9q0 41 11.5 66t32.5 42t53 25t82 8q38 0 75.5 -6 t58.5 -14q11 -4 13 -8.5t0 -15.5l-12 -56q-2 -11 -8.5 -13.5t-16.5 0.5q-17 6 -45 11t-52 5q-47 0 -62 -11q-14 -10 -14 -32v-7q0 -23 14 -31.5t37 -13.5l62 -14q72 -17 101 -54q12 -17 17 -37t5 -46v-12q0 -69 -40 -108q-48 -45 -148 -45zM269 557q-7 -8 -13 -9.5t-12 -1.5 h-57q-7 0 -13 1.5t-12 9.5l-91 109q-8 8 -6 16t8 13l28 21q8 7 16.5 7.5t17.5 -9.5l78 -78h3l81 78q10 9 18 9t16 -7l28 -21q6 -5 8 -13t-6 -16z" />
<glyph unicode="&#x162;" horiz-adv-x="482" d="M28 0zM319 25q0 -16 -5 -20.5t-22 -4.5h-72q-17 0 -22 4.5t-5 20.5v519h-140q-17 0 -21 5t-4 19v55q0 14 5 19t20 5h406q15 0 20 -5t5 -19v-55q0 -14 -4 -19t-21 -5h-140v-519zM250 -63q22 0 34.5 -11.5t12.5 -38.5v-18q0 -40 -18 -76.5t-52 -69.5q-15 -15 -28 -1l-19 18 q-7 7 -7 11.5t5 10.5q9 11 21 26t17 27q3 7 -3 10q-16 8 -23 17.5t-7 30.5v20q0 22 13 33t33 11h21z" />
<glyph unicode="&#x163;" horiz-adv-x="362" d="M9 0zM208 490h99q13 0 17 -5.5t4 -20.5v-49q0 -13 -4 -19t-17 -6h-99v-218q0 -27 2 -39t10 -20q7 -8 17 -10.5t30 -2.5h49q16 0 20 -5.5t4 -20.5v-49q0 -14 -3.5 -19.5t-20.5 -5.5h-72q-44 0 -71 7.5t-46 24.5q-38 35 -38 120v238h-60q-11 0 -15.5 4t-4.5 15v44 q0 12 3.5 15.5t12.5 5.5l64 11v105q0 15 5.5 20t22.5 5h63q17 0 22.5 -5t5.5 -20v-100zM235 -63q22 0 34.5 -11.5t12.5 -38.5v-18q0 -40 -18 -76.5t-52 -69.5q-15 -15 -28 -1l-19 18q-7 7 -7 11.5t5 10.5q9 11 21 26t17 27q3 7 -3 10q-16 8 -23 17.5t-7 30.5v20q0 22 13 33 t33 11h21z" />
<glyph unicode="&#x164;" horiz-adv-x="482" d="M28 0zM319 25q0 -16 -5 -20.5t-22 -4.5h-72q-17 0 -22 4.5t-5 20.5v519h-140q-17 0 -21 5t-4 19v55q0 14 5 19t20 5h406q15 0 20 -5t5 -19v-55q0 -14 -4 -19t-21 -5h-140v-519zM294 722q-7 -8 -13 -9.5t-12 -1.5h-57q-7 0 -13 1.5t-12 9.5l-91 109q-8 8 -6 16t8 13l28 21 q8 7 16.5 7.5t17.5 -9.5l78 -78h3l81 78q10 9 18 9t16 -7l28 -21q6 -5 8 -13t-6 -16z" />
<glyph unicode="&#x165;" horiz-adv-x="362" d="M9 0zM208 490h99q13 0 17 -5.5t4 -20.5v-49q0 -13 -4 -19t-17 -6h-99v-218q0 -27 2 -39t10 -20q7 -8 17 -10.5t30 -2.5h49q16 0 20 -5.5t4 -20.5v-49q0 -14 -3.5 -19.5t-20.5 -5.5h-72q-44 0 -71 7.5t-46 24.5q-38 35 -38 120v238h-60q-11 0 -15.5 4t-4.5 15v44 q0 12 3.5 15.5t12.5 5.5l64 11v105q0 15 5.5 20t22.5 5h63q17 0 22.5 -5t5.5 -20v-100zM328 763q22 0 34.5 -11.5t12.5 -38.5v-18q0 -40 -18 -76.5t-52 -69.5q-15 -15 -28 -1l-19 18q-7 7 -7 11.5t5 10.5q9 11 21 26t17 27q3 7 -3 10q-16 8 -23 17.5t-7 30.5v20q0 22 13 33 t33 11h21z" />
<glyph unicode="&#x166;" horiz-adv-x="482" d="M304 286v-257q0 -17 -6 -23t-23 -6h-68q-17 0 -23 6t-6 23v257h-108q-14 0 -19 6t-5 18v41q0 11 5 17.5t19 6.5h108v166h-140q-17 0 -21 5t-4 19v58q0 14 5 19t20 5h406q15 0 20 -5t5 -19v-58q0 -14 -4 -19t-21 -5h-140v-166h104q14 0 19 -6.5t5 -17.5v-41q0 -12 -5 -18 t-19 -6h-104z" />
<glyph unicode="&#x167;" horiz-adv-x="362" d="M208 490h99q13 0 17 -5.5t4 -20.5v-49q0 -13 -4 -19t-17 -6h-99v-88h99q13 0 17 -5.5t4 -20.5v-49q0 -13 -4 -19t-17 -6h-99v-30q0 -27 2 -39t10 -20q7 -8 17 -10.5t30 -2.5h49q16 0 20 -5.5t4 -20.5v-49q0 -14 -3.5 -19.5t-20.5 -5.5h-72q-44 0 -71 7.5t-46 24.5 q-38 35 -38 120v50h-60q-11 0 -15.5 4t-4.5 15v44q0 12 3.5 15.5t12.5 5.5l64 11v93h-60q-11 0 -15.5 4t-4.5 15v44q0 12 3.5 15.5t12.5 5.5l64 11v105q0 15 5.5 20t22.5 5h63q17 0 22.5 -5t5.5 -20v-100z" />
<glyph unicode="&#x168;" horiz-adv-x="614" d="M60 0zM554 219q0 -61 -14 -102t-46 -70q-29 -28 -75 -42t-112 -14q-68 0 -112.5 14t-73.5 42q-61 57 -61 172v403q0 16 5 20.5t22 4.5h72q17 0 22 -4.5t5 -20.5v-397q0 -33 6.5 -58t20.5 -39q30 -33 94 -33q35 0 57 8t38 25q26 29 26 97v397q0 16 5 20.5t22 4.5h72 q17 0 22 -4.5t5 -20.5v-403zM154 730q-8 5 -9.5 11.5t3.5 17.5q38 84 102 84q20 0 33.5 -5t27.5 -14l27 -17q11 -7 19 -10.5t16 -3.5q10 0 20.5 8t22.5 27q5 8 12.5 8t15.5 -5l22 -15q9 -6 10.5 -12t-3.5 -17q-22 -39 -49.5 -59t-56.5 -20q-17 0 -31.5 5t-28.5 14l-27 18 q-9 6 -15.5 9t-14.5 3q-9 0 -19.5 -7.5t-23.5 -28.5q-6 -10 -12 -11t-16 5z" />
<glyph unicode="&#x169;" horiz-adv-x="510" d="M55 0zM455 154q0 -51 -14 -81.5t-43 -49.5q-26 -17 -62.5 -24.5t-79.5 -7.5q-45 0 -81.5 7t-62.5 25q-28 19 -42.5 49.5t-14.5 81.5v311q0 15 5.5 20t22.5 5h63q17 0 22.5 -5t5.5 -20v-299q0 -26 5.5 -40t16.5 -22t26 -10.5t34 -2.5t34.5 2.5t25.5 10.5q11 8 15.5 22 t4.5 40v299q0 15 5.5 20t22.5 5h63q17 0 22.5 -5t5.5 -20v-311zM100 578q-8 5 -9.5 11.5t3.5 17.5q38 84 102 84q20 0 33.5 -5t27.5 -14l27 -17q11 -7 19 -10.5t16 -3.5q10 0 20.5 8t22.5 27q5 8 12.5 8t15.5 -5l22 -15q9 -6 10.5 -12t-3.5 -17q-22 -39 -49.5 -59t-56.5 -20 q-17 0 -31.5 5t-28.5 14l-27 18q-9 6 -15.5 9t-14.5 3q-9 0 -19.5 -7.5t-23.5 -28.5q-6 -10 -12 -11t-16 5z" />
<glyph unicode="&#x16a;" horiz-adv-x="614" d="M60 0zM554 219q0 -61 -14 -102t-46 -70q-29 -28 -75 -42t-112 -14q-68 0 -112.5 14t-73.5 42q-61 57 -61 172v403q0 16 5 20.5t22 4.5h72q17 0 22 -4.5t5 -20.5v-397q0 -33 6.5 -58t20.5 -39q30 -33 94 -33q35 0 57 8t38 25q26 29 26 97v397q0 16 5 20.5t22 4.5h72 q17 0 22 -4.5t5 -20.5v-403zM417 814q15 0 19.5 -6.5t4.5 -17.5v-37q0 -17 -8 -19.5t-16 -2.5h-216q-14 0 -19 6t-5 18v35q0 11 5 17.5t19 6.5h216z" />
<glyph unicode="&#x16b;" horiz-adv-x="510" d="M55 0zM455 154q0 -51 -14 -81.5t-43 -49.5q-26 -17 -62.5 -24.5t-79.5 -7.5q-45 0 -81.5 7t-62.5 25q-28 19 -42.5 49.5t-14.5 81.5v311q0 15 5.5 20t22.5 5h63q17 0 22.5 -5t5.5 -20v-299q0 -26 5.5 -40t16.5 -22t26 -10.5t34 -2.5t34.5 2.5t25.5 10.5q11 8 15.5 22 t4.5 40v299q0 15 5.5 20t22.5 5h63q17 0 22.5 -5t5.5 -20v-311zM364 662q15 0 19.5 -6.5t4.5 -17.5v-37q0 -17 -8 -19.5t-16 -2.5h-216q-14 0 -19 6t-5 18v35q0 11 5 17.5t19 6.5h216z" />
<glyph unicode="&#x16c;" horiz-adv-x="614" d="M60 0zM554 219q0 -61 -14 -102t-46 -70q-29 -28 -75 -42t-112 -14q-68 0 -112.5 14t-73.5 42q-61 57 -61 172v403q0 16 5 20.5t22 4.5h72q17 0 22 -4.5t5 -20.5v-397q0 -33 6.5 -58t20.5 -39q30 -33 94 -33q35 0 57 8t38 25q26 29 26 97v397q0 16 5 20.5t22 4.5h72 q17 0 22 -4.5t5 -20.5v-403zM308 706q-58 0 -97.5 30t-55.5 84q-4 11 -1.5 16t15.5 10l35 12q10 3 16.5 2t11.5 -14q14 -32 32.5 -46t43.5 -14t43.5 14t32.5 46q5 13 11.5 14t16.5 -2l35 -12q13 -5 15.5 -10t-1.5 -16q-16 -54 -55.5 -84t-97.5 -30z" />
<glyph unicode="&#x16d;" horiz-adv-x="510" d="M55 0zM455 154q0 -51 -14 -81.5t-43 -49.5q-26 -17 -62.5 -24.5t-79.5 -7.5q-45 0 -81.5 7t-62.5 25q-28 19 -42.5 49.5t-14.5 81.5v311q0 15 5.5 20t22.5 5h63q17 0 22.5 -5t5.5 -20v-299q0 -26 5.5 -40t16.5 -22t26 -10.5t34 -2.5t34.5 2.5t25.5 10.5q11 8 15.5 22 t4.5 40v299q0 15 5.5 20t22.5 5h63q17 0 22.5 -5t5.5 -20v-311zM256 551q-58 0 -97.5 30t-55.5 84q-4 11 -1.5 16t15.5 10l35 12q10 3 16.5 2t11.5 -14q14 -32 32.5 -46t43.5 -14t43.5 14t32.5 46q5 13 11.5 14t16.5 -2l35 -12q13 -5 15.5 -10t-1.5 -16q-16 -54 -55.5 -84 t-97.5 -30z" />
<glyph unicode="&#x16e;" horiz-adv-x="614" d="M60 0zM554 219q0 -61 -14 -102t-46 -70q-29 -28 -75 -42t-112 -14q-68 0 -112.5 14t-73.5 42q-61 57 -61 172v403q0 16 5 20.5t22 4.5h72q17 0 22 -4.5t5 -20.5v-397q0 -33 6.5 -58t20.5 -39q30 -33 94 -33q35 0 57 8t38 25q26 29 26 97v397q0 16 5 20.5t22 4.5h72 q17 0 22 -4.5t5 -20.5v-403zM211 774q0 41 28 69t69 28q42 0 69.5 -28t27.5 -69q0 -42 -27.5 -69.5t-69.5 -27.5q-41 0 -69 27.5t-28 69.5zM276 774q0 -14 9 -23.5t23 -9.5t23.5 9.5t9.5 23.5t-9.5 23t-23.5 9t-23 -9t-9 -23z" />
<glyph unicode="&#x16f;" horiz-adv-x="510" d="M55 0zM455 154q0 -51 -14 -81.5t-43 -49.5q-26 -17 -62.5 -24.5t-79.5 -7.5q-45 0 -81.5 7t-62.5 25q-28 19 -42.5 49.5t-14.5 81.5v311q0 15 5.5 20t22.5 5h63q17 0 22.5 -5t5.5 -20v-299q0 -26 5.5 -40t16.5 -22t26 -10.5t34 -2.5t34.5 2.5t25.5 10.5q11 8 15.5 22 t4.5 40v299q0 15 5.5 20t22.5 5h63q17 0 22.5 -5t5.5 -20v-311zM159 632q0 41 28 69t69 28q42 0 69.5 -28t27.5 -69q0 -42 -27.5 -69.5t-69.5 -27.5q-41 0 -69 27.5t-28 69.5zM224 632q0 -14 9 -23.5t23 -9.5t23.5 9.5t9.5 23.5t-9.5 23t-23.5 9t-23 -9t-9 -23z" />
<glyph unicode="&#x170;" horiz-adv-x="614" d="M60 0zM554 219q0 -61 -14 -102t-46 -70q-29 -28 -75 -42t-112 -14q-68 0 -112.5 14t-73.5 42q-61 57 -61 172v403q0 16 5 20.5t22 4.5h72q17 0 22 -4.5t5 -20.5v-397q0 -33 6.5 -58t20.5 -39q30 -33 94 -33q35 0 57 8t38 25q26 29 26 97v397q0 16 5 20.5t22 4.5h72 q17 0 22 -4.5t5 -20.5v-403zM305 887q17 15 33 -4l39 -46q9 -11 7.5 -17.5t-13.5 -15.5l-143 -109q-22 -13 -39 5l-22 26q-15 19 -2 32zM510 887q10 9 17.5 7.5t15.5 -11.5l39 -46q9 -11 8 -17t-14 -16l-143 -109q-11 -8 -21 -6t-18 11l-22 26q-15 19 -2 32z" />
<glyph unicode="&#x171;" horiz-adv-x="510" d="M55 0zM455 154q0 -51 -14 -81.5t-43 -49.5q-26 -17 -62.5 -24.5t-79.5 -7.5q-45 0 -81.5 7t-62.5 25q-28 19 -42.5 49.5t-14.5 81.5v311q0 15 5.5 20t22.5 5h63q17 0 22.5 -5t5.5 -20v-299q0 -26 5.5 -40t16.5 -22t26 -10.5t34 -2.5t34.5 2.5t25.5 10.5q11 8 15.5 22 t4.5 40v299q0 15 5.5 20t22.5 5h63q17 0 22.5 -5t5.5 -20v-311zM240 734q11 8 17.5 7t14.5 -10l39 -47q10 -11 9 -18t-14 -16l-145 -106q-21 -14 -38 4l-22 27q-15 19 -2 31zM456 734q11 8 17.5 7t14.5 -10l39 -47q10 -11 9 -18t-14 -16l-145 -106q-21 -14 -38 4l-22 27 q-15 19 -2 31z" />
<glyph unicode="&#x172;" horiz-adv-x="614" d="M554 219q0 -61 -14 -102t-46 -70q-18 -17 -37.5 -26.5t-35.5 -15.5q-45 -15 -71 -46.5t-26 -60.5q0 -33 32 -33q11 0 24.5 2.5t22.5 6.5q11 5 14.5 3t5.5 -9l9 -34q2 -8 -0.5 -12t-13.5 -9q-33 -14 -79 -14q-101 0 -101 78q0 35 20 66t48 48q-68 0 -112 14t-73 42 q-61 57 -61 172v399q0 17 6 23t23 6h68q17 0 23 -6t6 -23v-393q0 -33 6.5 -58t20.5 -39q30 -33 94 -33q35 0 57 8t38 25q26 29 26 97v393q0 17 6 23t23 6h68q17 0 23 -6t6 -23v-399z" />
<glyph unicode="&#x173;" horiz-adv-x="510" d="M455 154q0 -51 -14 -81.5t-43 -49.5q-12 -8 -23 -13t-22 -9q-44 -16 -64 -46.5t-20 -54.5q0 -35 32 -35q11 0 24.5 2.5t22.5 6.5q11 5 14.5 3t5.5 -9l9 -34q2 -8 -0.5 -12t-13.5 -9q-33 -14 -75 -14q-51 0 -78 20.5t-27 62.5q0 31 18 59.5t50 49.5q-43 1 -78 8t-61 24 q-28 19 -42.5 49.5t-14.5 81.5v311q0 15 5.5 20t22.5 5h63q17 0 22.5 -5t5.5 -20v-299q0 -26 5.5 -40t16.5 -22t26 -10.5t34 -2.5t34.5 2.5t25.5 10.5q11 8 15.5 22t4.5 40v299q0 15 5.5 20t22.5 5h63q17 0 22.5 -5t5.5 -20v-311z" />
<glyph unicode="&#x174;" horiz-adv-x="815" d="M11 0zM441 611q20 0 28.5 -5t12.5 -22q11 -51 24 -111l26 -120t25 -117.5t23 -104.5h5q20 101 43 227.5t47 265.5q3 16 10 19.5t23 3.5h69q17 0 22 -5t3 -18q-15 -76 -31.5 -158.5t-33 -161.5t-32.5 -150.5t-29 -125.5q-5 -17 -16 -22.5t-35 -5.5h-71q-24 0 -35 5.5 t-16 22.5q-12 46 -24.5 97.5t-24.5 105.5t-23 108t-21 104h-5q-10 -50 -21 -104t-23 -108t-24.5 -105.5t-24.5 -97.5q-5 -17 -16 -22.5t-35 -5.5h-71q-24 0 -35 5.5t-16 22.5q-13 54 -29 125.5t-32.5 150.5t-33 161.5t-31.5 158.5q-2 13 3 18t22 5h69q16 0 23 -3.5t10 -19.5 q24 -139 47 -265.5t43 -227.5h5q10 47 22.5 104.5t25.5 117.5l26 120t24 111q4 17 12.5 22t28.5 5h67zM553 761q8 -8 6 -16t-8 -13l-28 -21q-8 -7 -16 -7t-18 9l-81 78h-3l-78 -78q-9 -10 -17.5 -9.5t-16.5 7.5l-28 21q-6 5 -8 13t6 16l91 109q6 8 12 9.5t13 1.5h57 q6 0 12 -1.5t13 -9.5z" />
<glyph unicode="&#x175;" horiz-adv-x="677" d="M6 0zM669 467q-11 -55 -25 -117.5t-28 -122.5t-28 -113t-25 -88q-5 -15 -15 -20.5t-27 -5.5h-71q-17 0 -27 5.5t-15 20.5q-21 74 -38 154.5t-28 147.5h-5q-11 -67 -28.5 -148t-37.5 -154q-5 -15 -15 -20.5t-27 -5.5h-71q-17 0 -26.5 5.5t-15.5 20.5q-11 35 -24.5 88 t-28 113t-28.5 122.5t-25 117.5q-4 23 23 23h67q25 0 28 -21q7 -41 15 -87.5t17 -92.5t18 -88.5t17 -75.5h3q17 68 34.5 151t33.5 161q4 18 11.5 23.5t30.5 5.5h63q23 0 30.5 -5.5t11.5 -23.5q16 -78 33.5 -161t34.5 -151h3q7 33 16 75.5t18 88.5t17.5 92.5t15.5 87.5 q3 21 28 21h67q27 0 23 -23zM483 599q8 -8 6 -16t-8 -13l-28 -21q-8 -7 -16 -7t-18 9l-81 78h-3l-78 -78q-9 -10 -17.5 -9.5t-16.5 7.5l-28 21q-6 5 -8 13t6 16l91 109q6 8 12 9.5t13 1.5h57q6 0 12 -1.5t13 -9.5z" />
<glyph unicode="&#x176;" horiz-adv-x="499" d="M10 0zM312 25q0 -16 -5 -20.5t-22 -4.5h-72q-17 0 -22 4.5t-5 20.5v184q-54 94 -96 198.5t-76 218.5q-4 13 2 17t23 4h69q16 0 22.5 -2.5t10.5 -18.5q8 -34 20 -74.5t26 -81.5t29 -81t30 -72h7q15 32 30 72t29 81t26 81.5t20 74.5q4 16 10.5 18.5t22.5 2.5h69q17 0 23 -4 t2 -17q-34 -114 -76 -218.5t-97 -198.5v-184zM395 761q8 -8 6 -16t-8 -13l-28 -21q-8 -7 -16 -7t-18 9l-81 78h-3l-78 -78q-9 -10 -17.5 -9.5t-16.5 7.5l-28 21q-6 5 -8 13t6 16l91 109q6 8 12 9.5t13 1.5h57q6 0 12 -1.5t13 -9.5z" />
<glyph unicode="&#x177;" horiz-adv-x="458" d="M6 0zM131 -135q16 33 31.5 66t29.5 67q-20 6 -35 20.5t-26 46.5q-28 79 -59.5 183t-60.5 219q-5 23 23 23h68q24 0 28 -21q21 -92 46 -185t53 -181h4q38 110 61.5 206t34.5 160q4 21 28 21h67q28 0 23 -23q-33 -153 -83.5 -308.5t-129.5 -327.5q-8 -18 -20 -18 q-11 0 -23 5l-49 20q-11 5 -13.5 11t2.5 16zM374 599q8 -8 6 -16t-8 -13l-28 -21q-8 -7 -16 -7t-18 9l-81 78h-3l-78 -78q-9 -10 -17.5 -9.5t-16.5 7.5l-28 21q-6 5 -8 13t6 16l91 109q6 8 12 9.5t13 1.5h57q6 0 12 -1.5t13 -9.5z" />
<glyph unicode="&#x178;" horiz-adv-x="499" d="M10 0zM312 25q0 -16 -5 -20.5t-22 -4.5h-72q-17 0 -22 4.5t-5 20.5v184q-54 94 -96 198.5t-76 218.5q-4 13 2 17t23 4h69q16 0 22.5 -2.5t10.5 -18.5q8 -34 20 -74.5t26 -81.5t29 -81t30 -72h7q15 32 30 72t29 81t26 81.5t20 74.5q4 16 10.5 18.5t22.5 2.5h69q17 0 23 -4 t2 -17q-34 -114 -76 -218.5t-97 -198.5v-184zM174 847q25 0 40 -13t15 -36v-24q0 -25 -15 -37t-40 -12h-10q-24 0 -38.5 12t-14.5 37v24q0 23 14.5 36t38.5 13h10zM337 847q26 0 40 -13t14 -36v-24q0 -25 -14 -37t-40 -12h-9q-24 0 -38.5 12t-14.5 37v24q0 23 14.5 36 t38.5 13h9z" />
<glyph unicode="&#x179;" horiz-adv-x="511" d="M32 0zM435 103q17 0 22 -5t5 -19v-55q0 -14 -5 -19t-22 -5h-369q-18 0 -26 6t-8 24v32q0 9 4.5 17.5t12.5 20.5l272 444h-241q-17 0 -22 5t-5 19v55q0 14 5 19t22 5h366q16 0 23 -5.5t7 -19.5v-30q0 -11 -3.5 -19.5t-13.5 -25.5l-276 -444h252zM351 865q12 7 18.5 5 t12.5 -13l29 -53q7 -13 4.5 -20t-16.5 -13l-170 -71q-13 -5 -21.5 -1.5t-13.5 12.5l-18 31q-7 11 -5.5 18t9.5 12z" />
<glyph unicode="&#x17a;" horiz-adv-x="413" d="M20 0zM54 0q-20 0 -27 5.5t-7 21.5v23q0 13 4 23.5t17 29.5l188 287h-177q-17 0 -20.5 5.5t-3.5 18.5v51q0 14 3.5 19.5t20.5 5.5h310q13 0 17.5 -4t4.5 -17v-26q0 -15 -6 -26t-19 -31l-186 -286h205q14 0 18.5 -5.5t4.5 -19.5v-51q0 -13 -4.5 -18.5t-18.5 -5.5h-324z M288 719q11 8 17.5 6.5t13.5 -11.5l35 -50q8 -12 7 -19t-15 -15l-162 -89q-11 -7 -20.5 -4.5t-15.5 11.5l-21 29q-14 21 1 31z" />
<glyph unicode="&#x17b;" horiz-adv-x="511" d="M32 0zM435 103q17 0 22 -5t5 -19v-55q0 -14 -5 -19t-22 -5h-369q-18 0 -26 6t-8 24v32q0 9 4.5 17.5t12.5 20.5l272 444h-241q-17 0 -22 5t-5 19v55q0 14 5 19t22 5h366q16 0 23 -5.5t7 -19.5v-30q0 -11 -3.5 -19.5t-13.5 -25.5l-276 -444h252zM198 794q0 27 19.5 47 t47.5 20t47.5 -20t19.5 -47q0 -29 -19.5 -48.5t-47.5 -19.5t-47.5 19.5t-19.5 48.5z" />
<glyph unicode="&#x17c;" horiz-adv-x="413" d="M20 0zM54 0q-20 0 -27 5.5t-7 21.5v23q0 13 4 23.5t17 29.5l188 287h-177q-17 0 -20.5 5.5t-3.5 18.5v51q0 14 3.5 19.5t20.5 5.5h310q13 0 17.5 -4t4.5 -17v-26q0 -15 -6 -26t-19 -31l-186 -286h205q14 0 18.5 -5.5t4.5 -19.5v-51q0 -13 -4.5 -18.5t-18.5 -5.5h-324z M148 622q0 27 19.5 47t47.5 20t47.5 -20t19.5 -47q0 -29 -19.5 -48.5t-47.5 -19.5t-47.5 19.5t-19.5 48.5z" />
<glyph unicode="&#x17d;" horiz-adv-x="511" d="M32 0zM435 103q17 0 22 -5t5 -19v-55q0 -14 -5 -19t-22 -5h-369q-18 0 -26 6t-8 24v32q0 9 4.5 17.5t12.5 20.5l272 444h-241q-17 0 -22 5t-5 19v55q0 14 5 19t22 5h366q16 0 23 -5.5t7 -19.5v-30q0 -11 -3.5 -19.5t-13.5 -25.5l-276 -444h252zM328 722q-7 -8 -13 -9.5 t-12 -1.5h-57q-7 0 -13 1.5t-12 9.5l-91 109q-8 8 -6 16t8 13l28 21q8 7 16.5 7.5t17.5 -9.5l78 -78h3l81 78q10 9 18 9t16 -7l28 -21q6 -5 8 -13t-6 -16z" />
<glyph unicode="&#x17e;" horiz-adv-x="413" d="M20 0zM54 0q-20 0 -27 5.5t-7 21.5v23q0 13 4 23.5t17 29.5l188 287h-177q-17 0 -20.5 5.5t-3.5 18.5v51q0 14 3.5 19.5t20.5 5.5h310q13 0 17.5 -4t4.5 -17v-26q0 -15 -6 -26t-19 -31l-186 -286h205q14 0 18.5 -5.5t4.5 -19.5v-51q0 -13 -4.5 -18.5t-18.5 -5.5h-324z M271 557q-7 -8 -13 -9.5t-12 -1.5h-57q-7 0 -13 1.5t-12 9.5l-91 109q-8 8 -6 16t8 13l28 21q8 7 16.5 7.5t17.5 -9.5l78 -78h3l81 78q10 9 18 9t16 -7l28 -21q6 -5 8 -13t-6 -16z" />
<glyph unicode="&#x17f;" horiz-adv-x="293" d="M209 25q0 -15 -5.5 -20t-22.5 -5h-63q-17 0 -22.5 5t-5.5 20v365h-51q-14 0 -19.5 4.5t-5.5 17.5v42q0 12 4 15.5t16 5.5l56 10v39q0 27 2.5 46.5t7.5 34t13 25.5t19 21q20 17 51.5 26t79.5 9q27 0 49 -3t40 -8q11 -3 14 -8t1 -16l-9 -55q-3 -19 -23 -14q-8 2 -24 4.5 t-32 2.5q-36 0 -52 -11q-10 -7 -14 -21t-4 -40v-492z" />
<glyph unicode="&#x192;" d="M266 -20q-2 -32 -12 -66.5t-34 -59.5q-21 -23 -52.5 -34t-80.5 -11q-22 0 -46 5t-44 12q-13 5 -16 11.5t0 18.5l11 42q3 11 9.5 16.5t21.5 0.5q12 -4 28.5 -8t30.5 -4q31 0 47 19q15 18 18 59l24 309h-51q-11 0 -14.5 7t-2.5 18l3 35q2 15 6.5 21.5t18.5 8.5l47 7l9 111 q4 51 14.5 86.5t36.5 59.5q45 42 126 42q26 0 52 -4.5t44 -10.5q14 -5 16.5 -10t-1.5 -20l-13 -47q-4 -14 -9 -16.5t-16 1.5t-27 7.5t-33 3.5q-35 0 -51 -22t-21 -81l-7 -97h100q16 0 21.5 -4.5t3.5 -21.5l-5 -55q-1 -12 -6.5 -15.5t-22.5 -3.5h-99z" />
<glyph unicode="&#x1cd;" horiz-adv-x="569" d="M2 0zM279 519q-20 -64 -39 -131l-38 -134h166l-38 134t-39 131h-12zM140 26q-5 -17 -14 -21.5t-29 -4.5h-53q-21 0 -31.5 3t-5.5 23q21 76 45 155t48.5 155t48.5 146t45 129q8 23 21.5 29.5t44.5 6.5h49q31 0 45.5 -6.5t22.5 -29.5q21 -59 45 -129t48 -146t47.5 -155 t44.5 -155q5 -20 -5 -23t-31 -3h-53q-20 0 -29 4.5t-14 21.5l-33 123h-224zM338 722q-7 -8 -13 -9.5t-12 -1.5h-57q-7 0 -13 1.5t-12 9.5l-91 109q-8 8 -6 16t8 13l28 21q8 7 16.5 7.5t17.5 -9.5l78 -78h3l81 78q10 9 18 9t16 -7l28 -21q6 -5 8 -13t-6 -16z" />
<glyph unicode="&#x1ce;" horiz-adv-x="490" d="M36 0zM316 214q-13 1 -28 1.5t-30 0.5h-35q-17 0 -30.5 -2.5t-21.5 -9.5q-15 -12 -15 -49v-12q0 -32 15 -45q6 -5 16.5 -8.5t27.5 -3.5h36q35 0 50 16t15 51v61zM336 42q-14 -25 -39.5 -38t-70.5 -13h-37q-39 0 -64.5 7.5t-45.5 24.5q-22 19 -32.5 47.5t-10.5 64.5v23 q0 81 42 116q23 20 59 28.5t87 8.5h36q14 0 28.5 -0.5t27.5 -1.5v27q0 37 -17 51q-11 8 -26.5 11t-42.5 3t-60 -5t-63 -14q-12 -4 -17.5 0.5t-7.5 15.5l-9 47q-3 13 -0.5 19.5t15.5 10.5q28 9 69.5 16.5t81.5 7.5q54 0 86 -7.5t58 -24.5q27 -19 39.5 -48.5t12.5 -83.5v-316 q0 -19 -21 -19h-46q-20 0 -24 18l-6 24h-2zM300 557q-7 -8 -13 -9.5t-12 -1.5h-57q-7 0 -13 1.5t-12 9.5l-91 109q-8 8 -6 16t8 13l28 21q8 7 16.5 7.5t17.5 -9.5l78 -78h3l81 78q10 9 18 9t16 -7l28 -21q6 -5 8 -13t-6 -16z" />
<glyph unicode="&#x1fa;" horiz-adv-x="569" d="M2 0zM279 519q-20 -64 -39 -131l-38 -134h166l-38 134t-39 131h-12zM140 26q-5 -17 -14 -21.5t-29 -4.5h-53q-21 0 -31.5 3t-5.5 23q21 76 45 155t48.5 155t48.5 146t45 129q8 23 21.5 29.5t44.5 6.5h49q31 0 45.5 -6.5t22.5 -29.5q21 -59 45 -129t48 -146t47.5 -155 t44.5 -155q5 -20 -5 -23t-31 -3h-53q-20 0 -29 4.5t-14 21.5l-33 123h-224zM187 776q0 41 28 69t69 28q42 0 69.5 -28t27.5 -69q0 -42 -27.5 -69.5t-69.5 -27.5q-41 0 -69 27.5t-28 69.5zM252 776q0 -14 9 -23.5t23 -9.5t23.5 9.5t9.5 23.5t-9.5 23t-23.5 9t-23 -9t-9 -23z M344 1074q11 8 17.5 6.5t13.5 -11.5l35 -50q8 -12 7 -19t-15 -15l-162 -89q-11 -7 -20.5 -4.5t-15.5 11.5l-21 29q-14 21 1 31z" />
<glyph unicode="&#x1fb;" horiz-adv-x="490" d="M36 0zM316 214q-13 1 -28 1.5t-30 0.5h-35q-17 0 -30.5 -2.5t-21.5 -9.5q-15 -12 -15 -49v-12q0 -32 15 -45q6 -5 16.5 -8.5t27.5 -3.5h36q35 0 50 16t15 51v61zM336 42q-14 -25 -39.5 -38t-70.5 -13h-37q-39 0 -64.5 7.5t-45.5 24.5q-22 19 -32.5 47.5t-10.5 64.5v23 q0 81 42 116q23 20 59 28.5t87 8.5h36q14 0 28.5 -0.5t27.5 -1.5v27q0 37 -17 51q-11 8 -26.5 11t-42.5 3t-60 -5t-63 -14q-12 -4 -17.5 0.5t-7.5 15.5l-9 47q-3 13 -0.5 19.5t15.5 10.5q28 9 69.5 16.5t81.5 7.5q54 0 86 -7.5t58 -24.5q27 -19 39.5 -48.5t12.5 -83.5v-316 q0 -19 -21 -19h-46q-20 0 -24 18l-6 24h-2zM151 624q0 41 28 69t69 28q42 0 69.5 -28t27.5 -69q0 -42 -27.5 -69.5t-69.5 -27.5q-41 0 -69 27.5t-28 69.5zM216 624q0 -14 9 -23.5t23 -9.5t23.5 9.5t9.5 23.5t-9.5 23t-23.5 9t-23 -9t-9 -23zM330 903q12 7 18.5 5t12.5 -13 l29 -53q7 -13 4.5 -20t-16.5 -13l-170 -71q-13 -5 -21.5 -1.5t-13.5 12.5l-18 31q-7 11 -5.5 18t9.5 12z" />
<glyph unicode="&#x1fc;" horiz-adv-x="837" d="M1 0zM523 282v-151q0 -17 8 -22.5t24 -5.5h216q17 0 21.5 -5t4.5 -19v-55q0 -14 -4.5 -19t-21.5 -5h-229q-38 0 -64 5t-43 19t-26 35.5t-9 56.5v33h-198l-59 -123q-8 -17 -18 -21.5t-30 -4.5h-53q-21 0 -31 3t-1 23q37 76 76 153t77.5 152t76 145.5t72.5 134.5 q13 23 28 29.5t46 6.5h386q17 0 21 -5t4 -19v-55q0 -14 -4 -19t-21 -5h-249v-159h216q17 0 21 -5t4 -19v-55q0 -14 -4 -19t-21 -5h-216zM391 545q-17 -32 -34 -69t-35 -75t-35.5 -76t-33.5 -71h147v291h-9zM632 865q12 7 18.5 5t12.5 -13l29 -53q7 -13 4.5 -20t-16.5 -13 l-170 -71q-13 -5 -21.5 -1.5t-13.5 12.5l-18 31q-7 11 -5.5 18t9.5 12z" />
<glyph unicode="&#x1fd;" horiz-adv-x="753" d="M36 0zM714 217q0 -16 -5.5 -22.5t-21.5 -6.5h-250q1 -59 25 -80q10 -9 31 -14.5t57 -5.5q25 0 56 6t52 15q9 4 16 2t12 -18l13 -48q3 -11 -0.5 -17t-17.5 -11q-32 -12 -69.5 -19t-75.5 -7q-46 0 -89.5 14t-69.5 53q-20 -34 -57 -50.5t-94 -16.5h-37q-39 0 -64.5 7.5 t-45.5 24.5q-22 19 -32.5 47.5t-10.5 64.5v23q0 81 42 116q23 20 59 28.5t87 8.5h36q14 0 28.5 -0.5t27.5 -1.5v27q0 37 -17 51q-11 8 -26.5 11t-42.5 3t-60 -5t-63 -14q-12 -4 -17.5 0.5t-7.5 15.5l-9 47q-3 13 -0.5 19.5t15.5 10.5q30 10 70 17t77 7q66 0 100 -13.5 t51 -38.5q22 26 55 39t81 13q51 0 84 -11.5t57 -33.5q12 -11 21.5 -25.5t16 -34.5t10 -46.5t3.5 -62.5v-68zM316 214q-13 1 -28 1.5t-30 0.5h-35q-17 0 -30.5 -2.5t-21.5 -9.5q-15 -12 -15 -49v-12q0 -32 15 -45q6 -5 16.5 -8.5t27.5 -3.5h36q35 0 50 16t15 51v61zM518 404 q-38 0 -57 -20q-14 -14 -20 -40t-6 -62h147q13 0 13 14q0 33 -4 55t-15 34q-9 10 -22 14.5t-36 4.5zM478 719q11 8 17.5 6.5t13.5 -11.5l35 -50q8 -12 7 -19t-15 -15l-162 -89q-11 -7 -20.5 -4.5t-15.5 11.5l-21 29q-14 21 1 31z" />
<glyph unicode="&#x1fe;" horiz-adv-x="618" d="M48 0zM570 303q0 -78 -16.5 -141.5t-57.5 -105.5q-30 -31 -75.5 -48t-111.5 -17q-74 0 -120 18l-33 -59q-7 -13 -15.5 -14.5t-23.5 6.5l-26 14q-15 8 -17 15.5t6 20.5l37 67q-37 42 -53 104.5t-16 139.5v41q0 78 17 141.5t55 105.5q31 32 75 48.5t114 16.5q74 0 125 -23 l38 68q7 13 15.5 14.5t23.5 -6.5l26 -14q15 -8 17 -15.5t-6 -20.5l-43 -78q35 -42 50 -102.5t15 -134.5v-41zM177 313q0 -33 1 -65t9 -61l194 349q-28 16 -72 16q-71 0 -99 -41q-23 -34 -28 -80.5t-5 -96.5v-21zM441 334q0 30 -2 59.5t-7 55.5l-189 -342q25 -12 66 -12 q71 0 99 41q23 34 28 80.5t5 96.5v21zM384 865q12 7 18.5 5t12.5 -13l29 -53q7 -13 4.5 -20t-16.5 -13l-170 -71q-13 -5 -21.5 -1.5t-13.5 12.5l-18 31q-7 11 -5.5 18t9.5 12z" />
<glyph unicode="&#x1ff;" horiz-adv-x="500" d="M40 0zM250 499q52 0 91 -14l30 54q7 13 15.5 14.5t23.5 -6.5l14 -8q15 -8 17 -15.5t-6 -20.5l-32 -57l6 -6q28 -32 39.5 -77.5t11.5 -102.5v-30q0 -58 -11.5 -103t-39.5 -77q-25 -28 -64 -43.5t-95 -15.5q-26 0 -48.5 3.5t-41.5 9.5l-28 -50q-7 -13 -15.5 -14.5 t-23.5 6.5l-14 8q-15 8 -17 15.5t6 20.5l29 53l-6 7q-28 32 -39.5 77t-11.5 103v30q0 57 11.5 102.5t39.5 77.5q25 29 63.5 44t95.5 15zM161 235q0 -21 0.5 -39t2.5 -32l129 233q-15 7 -43 7q-27 0 -41.5 -6.5t-25.5 -20.5q-13 -17 -17.5 -46t-4.5 -75v-21zM250 86 q27 0 41.5 7t25.5 20q13 17 17.5 46.5t4.5 75.5v21q0 38 -3 67l-127 -230q14 -7 41 -7zM324 719q11 8 17.5 6.5t13.5 -11.5l35 -50q8 -12 7 -19t-15 -15l-162 -89q-11 -7 -20.5 -4.5t-15.5 11.5l-21 29q-14 21 1 31z" />
<glyph unicode="&#x218;" horiz-adv-x="510" d="M38 0zM234 -9q-20 0 -43 2.5t-46 6.5t-44.5 9t-38.5 11q-14 5 -19 11.5t-2 20.5l11 58q2 14 10 17t18 -1q15 -6 34.5 -11.5t39.5 -10t40 -7t37 -2.5q35 0 58.5 4.5t38.5 17.5q12 10 16 25.5t4 38.5v8q0 38 -12 53q-9 11 -25.5 18t-42.5 13l-69 15q-48 11 -75 23t-47 34 q-38 41 -38 122v13q0 94 58 138q28 20 68.5 29t96.5 9q23 0 46 -2t44 -5.5t39.5 -7.5t31.5 -8t16.5 -9.5t0.5 -19.5l-15 -63q-4 -21 -31 -12q-33 11 -66 17t-63 6q-32 0 -50.5 -3.5t-29.5 -11.5t-17 -22t-6 -38v-8q0 -19 3.5 -30.5t12.5 -20.5q10 -10 27 -16t40 -11l73 -15 q46 -10 75 -24t48 -37q17 -21 23.5 -49t6.5 -66v-15q0 -47 -13.5 -85t-40.5 -62q-29 -26 -74 -36.5t-109 -10.5zM272 -63q22 0 34.5 -11.5t12.5 -38.5v-18q0 -40 -18 -76.5t-52 -69.5q-15 -15 -28 -1l-19 18q-7 7 -7 11.5t5 10.5q9 11 21 26t17 27q3 7 -3 10q-16 8 -23 17.5 t-7 30.5v20q0 22 13 33t33 11h21z" />
<glyph unicode="&#x219;" horiz-adv-x="433" d="M34 0zM206 -9q-39 0 -80 7.5t-73 21.5q-14 5 -16.5 11t0.5 19l11 49q6 24 28 15q27 -11 60.5 -18.5t59.5 -7.5q25 0 40 2.5t25 9.5q17 11 17 39v7q0 24 -13.5 34t-44.5 18l-60 14q-36 8 -55 18.5t-33 26.5q-30 33 -30 92v9q0 41 11.5 66t32.5 42t53 25t82 8q38 0 75.5 -6 t58.5 -14q11 -4 13 -8.5t0 -15.5l-12 -56q-2 -11 -8.5 -13.5t-16.5 0.5q-17 6 -45 11t-52 5q-47 0 -62 -11q-14 -10 -14 -32v-7q0 -23 14 -31.5t37 -13.5l62 -14q72 -17 101 -54q12 -17 17 -37t5 -46v-12q0 -69 -40 -108q-48 -45 -148 -45zM229 -63q22 0 34.5 -11.5 t12.5 -38.5v-18q0 -40 -18 -76.5t-52 -69.5q-15 -15 -28 -1l-19 18q-7 7 -7 11.5t5 10.5q9 11 21 26t17 27q3 7 -3 10q-16 8 -23 17.5t-7 30.5v20q0 22 13 33t33 11h21z" />
<glyph unicode="&#x21a;" horiz-adv-x="482" d="M28 0zM319 25q0 -16 -5 -20.5t-22 -4.5h-72q-17 0 -22 4.5t-5 20.5v519h-140q-17 0 -21 5t-4 19v55q0 14 5 19t20 5h406q15 0 20 -5t5 -19v-55q0 -14 -4 -19t-21 -5h-140v-519zM250 -63q22 0 34.5 -11.5t12.5 -38.5v-18q0 -40 -18 -76.5t-52 -69.5q-15 -15 -28 -1l-19 18 q-7 7 -7 11.5t5 10.5q9 11 21 26t17 27q3 7 -3 10q-16 8 -23 17.5t-7 30.5v20q0 22 13 33t33 11h21z" />
<glyph unicode="&#x21b;" horiz-adv-x="362" d="M9 0zM208 490h99q13 0 17 -5.5t4 -20.5v-49q0 -13 -4 -19t-17 -6h-99v-218q0 -27 2 -39t10 -20q7 -8 17 -10.5t30 -2.5h49q16 0 20 -5.5t4 -20.5v-49q0 -14 -3.5 -19.5t-20.5 -5.5h-72q-44 0 -71 7.5t-46 24.5q-38 35 -38 120v238h-60q-11 0 -15.5 4t-4.5 15v44 q0 12 3.5 15.5t12.5 5.5l64 11v105q0 15 5.5 20t22.5 5h63q17 0 22.5 -5t5.5 -20v-100zM235 -63q22 0 34.5 -11.5t12.5 -38.5v-18q0 -40 -18 -76.5t-52 -69.5q-15 -15 -28 -1l-19 18q-7 7 -7 11.5t5 10.5q9 11 21 26t17 27q3 7 -3 10q-16 8 -23 17.5t-7 30.5v20q0 22 13 33 t33 11h21z" />
<glyph unicode="&#x2c6;" horiz-adv-x="370" d="M330 599q8 -8 6 -16t-8 -13l-28 -21q-8 -7 -16 -7t-18 9l-81 78h-3l-78 -78q-9 -10 -17.5 -9.5t-16.5 7.5l-28 21q-6 5 -8 13t6 16l91 109q6 8 12 9.5t13 1.5h57q6 0 12 -1.5t13 -9.5z" />
<glyph unicode="&#x2c7;" horiz-adv-x="370" d="M238 557q-7 -8 -13 -9.5t-12 -1.5h-57q-7 0 -13 1.5t-12 9.5l-91 109q-8 8 -6 16t8 13l28 21q8 7 16.5 7.5t17.5 -9.5l78 -78h3l81 78q10 9 18 9t16 -7l28 -21q6 -5 8 -13t-6 -16z" />
<glyph unicode="&#x2d8;" horiz-adv-x="370" d="M185 551q-58 0 -97.5 30t-55.5 84q-4 11 -1.5 16t15.5 10l35 12q10 3 16.5 2t11.5 -14q14 -32 32.5 -46t43.5 -14t43.5 14t32.5 46q5 13 11.5 14t16.5 -2l35 -12q13 -5 15.5 -10t-1.5 -16q-16 -54 -55.5 -84t-97.5 -30z" />
<glyph unicode="&#x2d9;" horiz-adv-x="370" d="M118 622q0 27 19.5 47t47.5 20t47.5 -20t19.5 -47q0 -29 -19.5 -48.5t-47.5 -19.5t-47.5 19.5t-19.5 48.5z" />
<glyph unicode="&#x2da;" horiz-adv-x="370" d="M88 632q0 41 28 69t69 28q42 0 69.5 -28t27.5 -69q0 -42 -27.5 -69.5t-69.5 -27.5q-41 0 -69 27.5t-28 69.5zM153 632q0 -14 9 -23.5t23 -9.5t23.5 9.5t9.5 23.5t-9.5 23t-23.5 9t-23 -9t-9 -23z" />
<glyph unicode="&#x2db;" horiz-adv-x="370" d="M255 5q7 0 7.5 -4t-3.5 -7q-35 -28 -49 -52.5t-14 -47.5q0 -29 32 -29q11 0 24.5 2.5t22.5 6.5q11 5 14.5 3t5.5 -9l9 -34q2 -8 -0.5 -12t-13.5 -9q-33 -14 -75 -14q-51 0 -78 20.5t-27 62.5q0 34 22 65t59 52q10 6 26 6h38z" />
<glyph unicode="&#x2dc;" horiz-adv-x="370" d="M28 578q-8 5 -9.5 11.5t3.5 17.5q38 84 102 84q20 0 33.5 -5t27.5 -14l27 -17q11 -7 19 -10.5t16 -3.5q10 0 20.5 8t22.5 27q5 8 12.5 8t15.5 -5l22 -15q9 -6 10.5 -12t-3.5 -17q-22 -39 -49.5 -59t-56.5 -20q-17 0 -31.5 5t-28.5 14l-27 18q-9 6 -15.5 9t-14.5 3 q-9 0 -19.5 -7.5t-23.5 -28.5q-6 -10 -12 -11t-16 5z" />
<glyph unicode="&#x2dd;" horiz-adv-x="370" d="M170 734q11 8 17.5 7t14.5 -10l39 -47q10 -11 9 -18t-14 -16l-145 -106q-21 -14 -38 4l-22 27q-15 19 -2 31zM386 734q11 8 17.5 7t14.5 -10l39 -47q10 -11 9 -18t-14 -16l-145 -106q-21 -14 -38 4l-22 27q-15 19 -2 31z" />
<glyph unicode="&#x326;" horiz-adv-x="370" d="M197 -63q22 0 34.5 -11.5t12.5 -38.5v-18q0 -40 -18 -76.5t-52 -69.5q-15 -15 -28 -1l-19 18q-7 7 -7 11.5t5 10.5q9 11 21 26t17 27q3 7 -3 10q-16 8 -23 17.5t-7 30.5v20q0 22 13 33t33 11h21z" />
<glyph unicode="&#x394;" horiz-adv-x="602" d="M433 108q-31 97 -63 189t-67 186h-5q-33 -94 -64.5 -186t-63.5 -189h263zM63 0q-19 0 -26 7t-7 22v46q0 13 5 30t13 39q22 64 41 118.5t39 109.5t43 114.5t53 133.5q11 27 38 27h83q14 0 21 -7t12 -19q30 -74 53 -134t43.5 -114.5t39.5 -109.5t40 -119q8 -22 13 -39 t5 -30v-46q0 -15 -7 -22t-26 -7h-476z" />
<glyph unicode="&#x3a9;" horiz-adv-x="616" d="M308 552q-30 0 -53.5 -9.5t-37.5 -23.5q-20 -21 -30.5 -55.5t-10.5 -101.5v-27q0 -74 21.5 -127t60.5 -95q9 -10 12.5 -15.5t3.5 -14.5v-68q0 -7 -3 -11t-12 -4h-213q-12 0 -16.5 5.5t-4.5 16.5v61q0 10 4.5 15t16.5 5h90v3q-47 40 -68 95.5t-21 128.5v42 q0 68 15.5 123.5t51.5 95.5q26 28 71 46.5t123 18.5t123 -18.5t71 -46.5q36 -40 51.5 -95.5t15.5 -123.5v-42q0 -73 -21 -128.5t-68 -95.5v-3h90q12 0 16.5 -5t4.5 -15v-61q0 -11 -4.5 -16.5t-16.5 -5.5h-213q-9 0 -12 4t-3 11v68q0 9 3.5 14.5t12.5 15.5q39 42 60.5 95 t21.5 127v27q0 67 -10.5 101.5t-30.5 55.5q-14 14 -37.5 23.5t-53.5 9.5z" />
<glyph unicode="&#x3bc;" horiz-adv-x="542" d="M161 -152q0 -15 -5.5 -20t-22.5 -5h-63q-17 0 -22.5 5t-5.5 20v617q0 15 5.5 20t22.5 5h63q17 0 22.5 -5t5.5 -20v-289q0 -52 19 -68q10 -8 23 -12.5t38 -4.5t38 3.5t23 11.5q13 11 17 27.5t4 42.5v289q0 15 5.5 20t22.5 5h63q17 0 22.5 -5t5.5 -20v-328q0 -26 8 -36 t21 -10q9 0 15.5 1t11.5 3q22 7 25 -16l6 -50q2 -10 -1 -15t-14 -10q-10 -5 -29.5 -9t-39.5 -4q-78 0 -101 46h-2q-17 -23 -44 -34.5t-61 -11.5q-49 0 -76 21v-164z" />
<glyph unicode="&#x3c0;" horiz-adv-x="588" d="M472 153q0 -36 6 -49.5t26 -13.5q11 0 19.5 1.5t19.5 4.5q15 3 16 -10l7 -62q1 -7 -1 -11t-10 -8q-13 -5 -36.5 -9.5t-57.5 -4.5q-62 0 -88.5 29.5t-26.5 102.5v261h-113v-355q0 -17 -6 -23t-23 -6h-68q-17 0 -23 6t-6 23v355h-69q-17 0 -21 5t-4 19v58q0 14 5 19t20 5 h512q15 0 20 -5t5 -19v-58q0 -14 -5.5 -19t-19.5 -5h-78v-231z" />
<glyph unicode="&#x1e80;" horiz-adv-x="815" d="M11 0zM441 611q20 0 28.5 -5t12.5 -22q11 -51 24 -111l26 -120t25 -117.5t23 -104.5h5q20 101 43 227.5t47 265.5q3 16 10 19.5t23 3.5h69q17 0 22 -5t3 -18q-15 -76 -31.5 -158.5t-33 -161.5t-32.5 -150.5t-29 -125.5q-5 -17 -16 -22.5t-35 -5.5h-71q-24 0 -35 5.5 t-16 22.5q-12 46 -24.5 97.5t-24.5 105.5t-23 108t-21 104h-5q-10 -50 -21 -104t-23 -108t-24.5 -105.5t-24.5 -97.5q-5 -17 -16 -22.5t-35 -5.5h-71q-24 0 -35 5.5t-16 22.5q-13 54 -29 125.5t-32.5 150.5t-33 161.5t-31.5 158.5q-2 13 3 18t22 5h69q16 0 23 -3.5t10 -19.5 q24 -139 47 -265.5t43 -227.5h5q10 47 22.5 104.5t25.5 117.5l26 120t24 111q4 17 12.5 22t28.5 5h67zM494 772q8 -5 9 -11.5t-5 -18.5l-18 -31q-5 -10 -14 -13.5t-21 2.5l-170 71q-14 7 -16.5 13.5t4.5 19.5l29 53q6 11 12.5 13t18.5 -5z" />
<glyph unicode="&#x1e81;" horiz-adv-x="677" d="M6 0zM669 467q-11 -55 -25 -117.5t-28 -122.5t-28 -113t-25 -88q-5 -15 -15 -20.5t-27 -5.5h-71q-17 0 -27 5.5t-15 20.5q-21 74 -38 154.5t-28 147.5h-5q-11 -67 -28.5 -148t-37.5 -154q-5 -15 -15 -20.5t-27 -5.5h-71q-17 0 -26.5 5.5t-15.5 20.5q-11 35 -24.5 88 t-28 113t-28.5 122.5t-25 117.5q-4 23 23 23h67q25 0 28 -21q7 -41 15 -87.5t17 -92.5t18 -88.5t17 -75.5h3q17 68 34.5 151t33.5 161q4 18 11.5 23.5t30.5 5.5h63q23 0 30.5 -5.5t11.5 -23.5q16 -78 33.5 -161t34.5 -151h3q7 33 16 75.5t18 88.5t17.5 92.5t15.5 87.5 q3 21 28 21h67q27 0 23 -23zM442 608q15 -10 1 -31l-21 -29q-6 -9 -15.5 -11.5t-20.5 4.5l-162 89q-14 8 -15 15t7 19l35 50q7 10 13.5 11.5t17.5 -6.5z" />
<glyph unicode="&#x1e82;" horiz-adv-x="815" d="M11 0zM441 611q20 0 28.5 -5t12.5 -22q11 -51 24 -111l26 -120t25 -117.5t23 -104.5h5q20 101 43 227.5t47 265.5q3 16 10 19.5t23 3.5h69q17 0 22 -5t3 -18q-15 -76 -31.5 -158.5t-33 -161.5t-32.5 -150.5t-29 -125.5q-5 -17 -16 -22.5t-35 -5.5h-71q-24 0 -35 5.5 t-16 22.5q-12 46 -24.5 97.5t-24.5 105.5t-23 108t-21 104h-5q-10 -50 -21 -104t-23 -108t-24.5 -105.5t-24.5 -97.5q-5 -17 -16 -22.5t-35 -5.5h-71q-24 0 -35 5.5t-16 22.5q-13 54 -29 125.5t-32.5 150.5t-33 161.5t-31.5 158.5q-2 13 3 18t22 5h69q16 0 23 -3.5t10 -19.5 q24 -139 47 -265.5t43 -227.5h5q10 47 22.5 104.5t25.5 117.5l26 120t24 111q4 17 12.5 22t28.5 5h67zM490 865q12 7 18.5 5t12.5 -13l29 -53q7 -13 4.5 -20t-16.5 -13l-170 -71q-13 -5 -21.5 -1.5t-13.5 12.5l-18 31q-7 11 -5.5 18t9.5 12z" />
<glyph unicode="&#x1e83;" horiz-adv-x="677" d="M6 0zM669 467q-11 -55 -25 -117.5t-28 -122.5t-28 -113t-25 -88q-5 -15 -15 -20.5t-27 -5.5h-71q-17 0 -27 5.5t-15 20.5q-21 74 -38 154.5t-28 147.5h-5q-11 -67 -28.5 -148t-37.5 -154q-5 -15 -15 -20.5t-27 -5.5h-71q-17 0 -26.5 5.5t-15.5 20.5q-11 35 -24.5 88 t-28 113t-28.5 122.5t-25 117.5q-4 23 23 23h67q25 0 28 -21q7 -41 15 -87.5t17 -92.5t18 -88.5t17 -75.5h3q17 68 34.5 151t33.5 161q4 18 11.5 23.5t30.5 5.5h63q23 0 30.5 -5.5t11.5 -23.5q16 -78 33.5 -161t34.5 -151h3q7 33 16 75.5t18 88.5t17.5 92.5t15.5 87.5 q3 21 28 21h67q27 0 23 -23zM405 719q11 8 17.5 6.5t13.5 -11.5l35 -50q8 -12 7 -19t-15 -15l-162 -89q-11 -7 -20.5 -4.5t-15.5 11.5l-21 29q-14 21 1 31z" />
<glyph unicode="&#x1e84;" horiz-adv-x="815" d="M11 0zM441 611q20 0 28.5 -5t12.5 -22q11 -51 24 -111l26 -120t25 -117.5t23 -104.5h5q20 101 43 227.5t47 265.5q3 16 10 19.5t23 3.5h69q17 0 22 -5t3 -18q-15 -76 -31.5 -158.5t-33 -161.5t-32.5 -150.5t-29 -125.5q-5 -17 -16 -22.5t-35 -5.5h-71q-24 0 -35 5.5 t-16 22.5q-12 46 -24.5 97.5t-24.5 105.5t-23 108t-21 104h-5q-10 -50 -21 -104t-23 -108t-24.5 -105.5t-24.5 -97.5q-5 -17 -16 -22.5t-35 -5.5h-71q-24 0 -35 5.5t-16 22.5q-13 54 -29 125.5t-32.5 150.5t-33 161.5t-31.5 158.5q-2 13 3 18t22 5h69q16 0 23 -3.5t10 -19.5 q24 -139 47 -265.5t43 -227.5h5q10 47 22.5 104.5t25.5 117.5l26 120t24 111q4 17 12.5 22t28.5 5h67zM331 847q25 0 40 -13t15 -36v-24q0 -25 -15 -37t-40 -12h-10q-24 0 -38.5 12t-14.5 37v24q0 23 14.5 36t38.5 13h10zM494 847q26 0 40 -13t14 -36v-24q0 -25 -14 -37 t-40 -12h-9q-24 0 -38.5 12t-14.5 37v24q0 23 14.5 36t38.5 13h9z" />
<glyph unicode="&#x1e85;" horiz-adv-x="677" d="M6 0zM669 467q-11 -55 -25 -117.5t-28 -122.5t-28 -113t-25 -88q-5 -15 -15 -20.5t-27 -5.5h-71q-17 0 -27 5.5t-15 20.5q-21 74 -38 154.5t-28 147.5h-5q-11 -67 -28.5 -148t-37.5 -154q-5 -15 -15 -20.5t-27 -5.5h-71q-17 0 -26.5 5.5t-15.5 20.5q-11 35 -24.5 88 t-28 113t-28.5 122.5t-25 117.5q-4 23 23 23h67q25 0 28 -21q7 -41 15 -87.5t17 -92.5t18 -88.5t17 -75.5h3q17 68 34.5 151t33.5 161q4 18 11.5 23.5t30.5 5.5h63q23 0 30.5 -5.5t11.5 -23.5q16 -78 33.5 -161t34.5 -151h3q7 33 16 75.5t18 88.5t17.5 92.5t15.5 87.5 q3 21 28 21h67q27 0 23 -23zM261 693q25 0 40 -13t15 -36v-24q0 -25 -15 -37t-40 -12h-10q-24 0 -38.5 12t-14.5 37v24q0 23 14.5 36t38.5 13h10zM424 693q26 0 40 -13t14 -36v-24q0 -25 -14 -37t-40 -12h-9q-24 0 -38.5 12t-14.5 37v24q0 23 14.5 36t38.5 13h9z" />
<glyph unicode="&#x1ef2;" horiz-adv-x="499" d="M10 0zM312 25q0 -16 -5 -20.5t-22 -4.5h-72q-17 0 -22 4.5t-5 20.5v184q-54 94 -96 198.5t-76 218.5q-4 13 2 17t23 4h69q16 0 22.5 -2.5t10.5 -18.5q8 -34 20 -74.5t26 -81.5t29 -81t30 -72h7q15 32 30 72t29 81t26 81.5t20 74.5q4 16 10.5 18.5t22.5 2.5h69q17 0 23 -4 t2 -17q-34 -114 -76 -218.5t-97 -198.5v-184zM347 772q8 -5 9 -11.5t-5 -18.5l-18 -31q-5 -10 -14 -13.5t-21 2.5l-170 71q-14 7 -16.5 13.5t4.5 19.5l29 53q6 11 12.5 13t18.5 -5z" />
<glyph unicode="&#x1ef3;" horiz-adv-x="458" d="M6 0zM131 -135q16 33 31.5 66t29.5 67q-20 6 -35 20.5t-26 46.5q-28 79 -59.5 183t-60.5 219q-5 23 23 23h68q24 0 28 -21q21 -92 46 -185t53 -181h4q38 110 61.5 206t34.5 160q4 21 28 21h67q28 0 23 -23q-33 -153 -83.5 -308.5t-129.5 -327.5q-8 -18 -20 -18 q-11 0 -23 5l-49 20q-11 5 -13.5 11t2.5 16zM322 608q15 -10 1 -31l-21 -29q-6 -9 -15.5 -11.5t-20.5 4.5l-162 89q-14 8 -15 15t7 19l35 50q7 10 13.5 11.5t17.5 -6.5z" />
<glyph unicode="&#x2013;" horiz-adv-x="500" d="M461 313q24 0 31.5 -9t7.5 -28v-36q0 -18 -7.5 -26.5t-31.5 -8.5h-423q-26 0 -32 9.5t-6 27.5v34q0 17 6 27t32 10h423z" />
<glyph unicode="&#x2014;" horiz-adv-x="1000" d="M961 313q24 0 31.5 -9t7.5 -28v-36q0 -18 -7.5 -26.5t-31.5 -8.5h-922q-24 0 -31.5 8.5t-7.5 26.5v36q0 19 7.5 28t31.5 9h922z" />
<glyph unicode="&#x2018;" horiz-adv-x="255" d="M50 423zM116.008 423.008q-29.998 0 -47.9971 15.499t-17.999 47.4971v18.999q0 20.999 6.99902 48.4971q7 27.498 19.499 55.9971q12.499 28.498 28.998 55.9961t35.498 49.4971q9 10.999 15.999 11.999q7 1 21.999 -6.99902l24.998 -13.999q13.999 -8 14.499 -14.999 q0.5 -7 -5.49902 -15q-11 -13.999 -22.499 -32.498q-11.499 -18.498 -20.499 -34.4971q-9.99902 -16.999 -9.99902 -26.499q0 -9.49902 8.99902 -15.499l11 -6.99902q10.999 -7 16.499 -17.499q5.49902 -10.5 5.49902 -31.498v-29.998q0 -28.999 -17.999 -43.498 t-48.9971 -14.499h-18.998z" />
<glyph unicode="&#x2019;" horiz-adv-x="255" d="M36 421zM139 726q30 0 48 -15.5t18 -47.5v-19q0 -21 -7 -48.5t-19.5 -56t-29 -56t-35.5 -49.5q-9 -11 -16 -12t-22 7l-25 14q-14 8 -14.5 15t5.5 15q11 14 22.5 32.5t20.5 34.5q10 17 10 26.5t-9 15.5l-11 7q-11 7 -16.5 17.5t-5.5 31.5v30q0 29 18 43.5t49 14.5h19z" />
<glyph unicode="&#x201a;" horiz-adv-x="255" d="M36 0zM139 132q30 0 48 -15.5t18 -47.5v-19q0 -21 -7 -48.5t-19.5 -56t-29 -56t-35.5 -49.5q-9 -11 -16 -12t-22 7l-25 14q-14 8 -14.5 15t5.5 15q11 14 22.5 32.5t20.5 34.5q10 17 10 26.5t-9 15.5l-11 7q-11 7 -16.5 17.5t-5.5 31.5v30q0 29 18 43.5t49 14.5h19z" />
<glyph unicode="&#x201c;" horiz-adv-x="469" d="M50 423zM116.008 423.008q-29.998 0 -47.9971 15.499t-17.999 47.4971v18.999q0 20.999 6.99902 48.4971q7 27.498 19.499 55.9971q12.499 28.498 28.998 55.9961t35.498 49.4971q9 10.999 15.999 11.999q7 1 21.999 -6.99902l24.998 -13.999q13.999 -8 14.499 -14.999 q0.5 -7 -5.49902 -15q-11 -13.999 -22.499 -32.498q-11.499 -18.498 -20.499 -34.4971q-9.99902 -16.999 -9.99902 -26.499q0 -9.49902 8.99902 -15.499l11 -6.99902q10.999 -7 16.499 -17.499q5.49902 -10.5 5.49902 -31.498v-29.998q0 -28.999 -17.999 -43.498 t-48.9971 -14.499h-18.998zM330.008 423.008q-29.998 0 -47.9971 15.499t-17.999 47.4971v18.999q0 20.999 6.99902 48.4971q7 27.498 19.499 55.9971q12.499 28.498 28.998 55.9961t35.498 49.4971q9 10.999 15.999 11.999q7 1 21.999 -6.99902l24.998 -13.999 q13.999 -8 14.499 -14.999q0.5 -7 -5.49902 -15q-11 -13.999 -22.499 -32.498q-11.499 -18.498 -20.499 -34.4971q-9.99902 -16.999 -9.99902 -26.499q0 -9.49902 8.99902 -15.499l11 -6.99902q10.999 -7 16.499 -17.499q5.49902 -10.5 5.49902 -31.498v-29.998 q0 -28.999 -17.999 -43.498t-48.9971 -14.499h-18.998z" />
<glyph unicode="&#x201d;" horiz-adv-x="469" d="M36 426zM139 731q30 0 48 -15.5t18 -47.5v-19q0 -21 -7 -48.5t-19.5 -56t-29 -56t-35.5 -49.5q-9 -11 -16 -12t-22 7l-25 14q-14 8 -14.5 15t5.5 15q11 14 22.5 32.5t20.5 34.5q10 17 10 26.5t-9 15.5l-11 7q-11 7 -16.5 17.5t-5.5 31.5v30q0 29 18 43.5t49 14.5h19z M353 731q30 0 48 -15.5t18 -47.5v-19q0 -21 -7 -48.5t-19.5 -56t-29 -56t-35.5 -49.5q-9 -11 -16 -12t-22 7l-25 14q-14 8 -14.5 15t5.5 15q11 14 22.5 32.5t20.5 34.5q10 17 10 26.5t-9 15.5l-11 7q-11 7 -16.5 17.5t-5.5 31.5v30q0 29 18 43.5t49 14.5h19z" />
<glyph unicode="&#x201e;" horiz-adv-x="469" d="M36 0zM139 132q30 0 48 -15.5t18 -47.5v-19q0 -21 -7 -48.5t-19.5 -56t-29 -56t-35.5 -49.5q-9 -11 -16 -12t-22 7l-25 14q-14 8 -14.5 15t5.5 15q11 14 22.5 32.5t20.5 34.5q10 17 10 26.5t-9 15.5l-11 7q-11 7 -16.5 17.5t-5.5 31.5v30q0 29 18 43.5t49 14.5h19z M353 132q30 0 48 -15.5t18 -47.5v-19q0 -21 -7 -48.5t-19.5 -56t-29 -56t-35.5 -49.5q-9 -11 -16 -12t-22 7l-25 14q-14 8 -14.5 15t5.5 15q11 14 22.5 32.5t20.5 34.5q10 17 10 26.5t-9 15.5l-11 7q-11 7 -16.5 17.5t-5.5 31.5v30q0 29 18 43.5t49 14.5h19z" />
<glyph unicode="&#x2020;" horiz-adv-x="411" d="M266 378l-4 -351q0 -15 -8 -21t-25 -6h-49q-18 0 -24.5 6t-6.5 21l-5 350l-90 -2q-13 0 -19.5 1.5t-9 6t-2.5 11.5v18v34v17.5t2.5 12t9 6t19.5 1.5l89 -2l-2 145q0 17 6.5 22.5t32.5 5.5h50q28 0 33.5 -5.5t5.5 -22.5l-2 -145l90 2q25 1 28 -7.5t3 -29.5v-34v-18 t-2.5 -11.5t-9 -6t-19.5 -1.5z" />
<glyph unicode="&#x2021;" horiz-adv-x="411" d="M349 304q25 1 28 -7.5t3 -29.5v-34v-18t-2.5 -11.5t-9 -6t-19.5 -1.5l-85 2l-2 -171q0 -15 -8 -21t-25 -6h-49q-18 0 -24.5 6t-6.5 21l-3 171l-85 -2q-13 0 -19.5 1.5t-9 6t-2.5 11.5v18v34v17.5t2.5 12t9 6t19.5 1.5l84 -2l-1 75l-90 -2q-13 0 -19.5 1.5t-9 6t-2.5 11.5 v18v34v17.5t2.5 12t9 6t19.5 1.5l89 -2l-2 145q0 17 6.5 22.5t32.5 5.5h50q28 0 33.5 -5.5t5.5 -22.5l-2 -145l90 2q25 1 28 -7.5t3 -29.5v-34v-18t-2.5 -11.5t-9 -6t-19.5 -1.5l-91 2l-1 -75z" />
<glyph unicode="&#x2022;" horiz-adv-x="311" d="M36 261q0 25 9 47t25 38t38 25.5t47 9.5t47 -9.5t38 -25.5t25.5 -38t9.5 -47t-9.5 -47t-25.5 -38t-38 -25t-47 -9t-47 9t-38 25t-25 38t-9 47z" />
<glyph unicode="&#x2026;" horiz-adv-x="630" d="M174 55q0 -32 -17 -48t-46 -16h-11q-35 0 -49.5 16t-14.5 48v16q0 35 18.5 49t45.5 14h11q29 0 46 -14t17 -49v-16zM384 55q0 -32 -17 -48t-46 -16h-11q-35 0 -49.5 16t-14.5 48v16q0 35 18.5 49t45.5 14h11q29 0 46 -14t17 -49v-16zM594 55q0 -32 -17 -48t-46 -16h-11 q-35 0 -49.5 16t-14.5 48v16q0 35 18.5 49t45.5 14h11q29 0 46 -14t17 -49v-16z" />
<glyph unicode="&#x2030;" horiz-adv-x="1226" d="M359 467q0 -42 -9 -80t-36 -64q-17 -17 -42.5 -26t-60.5 -9t-60.5 9t-42.5 26q-28 26 -36.5 64t-8.5 80v10q0 42 8.5 80.5t36.5 64.5q17 16 42.5 25t60.5 9t60.5 -9t42.5 -25q27 -26 36 -64.5t9 -80.5v-10zM244 476q0 52 -8 69.5t-25 17.5q-18 0 -26 -17.5t-8 -69.5v-8 q0 -52 8 -69.5t26 -17.5q17 0 25 17.5t8 69.5v8zM560 633q8 14 17 18.5t26 4.5h60q20 0 23 -9.5t-7 -26.5l-353 -606q-8 -14 -17 -18.5t-26 -4.5h-60q-20 0 -23 9.5t7 26.5zM827 170q0 -42 -9 -80t-36 -64q-17 -17 -42.5 -26t-60.5 -9t-60.5 9t-42.5 26q-28 26 -36.5 64 t-8.5 80v10q0 42 8.5 80.5t36.5 64.5q17 16 42.5 25t60.5 9t60.5 -9t42.5 -25q27 -26 36 -64.5t9 -80.5v-10zM712 179q0 52 -8 69.5t-25 17.5q-18 0 -26 -17.5t-8 -69.5v-8q0 -52 8 -69.5t26 -17.5q17 0 25 17.5t8 69.5v8zM1163 170q0 -42 -9 -80t-36 -64q-17 -17 -42.5 -26 t-60.5 -9t-60.5 9t-42.5 26q-28 26 -36.5 64t-8.5 80v10q0 42 8.5 80.5t36.5 64.5q17 16 42.5 25t60.5 9t60.5 -9t42.5 -25q27 -26 36 -64.5t9 -80.5v-10zM1048 179q0 52 -8 69.5t-25 17.5q-18 0 -26 -17.5t-8 -69.5v-8q0 -52 8 -69.5t26 -17.5q17 0 25 17.5t8 69.5v8z" />
<glyph unicode="&#x2039;" horiz-adv-x="319" d="M273 133q18 -16 15.5 -27.5t-16.5 -24.5l-24 -21q-14 -13 -25.5 -12t-29.5 15l-154 127q-11 9 -15 18t-4 21v8q0 23 19 39l154 126q17 14 29 15.5t26 -11.5l24 -21q17 -15 16 -26.5t-15 -23.5l-110 -102z" />
<glyph unicode="&#x203a;" horiz-adv-x="319" d="M156 233l-110 102q-14 12 -15 23.5t16 26.5l24 21q14 13 26 11.5t29 -15.5l154 -126q11 -9 15 -18t4 -21v-8q0 -12 -4 -21t-15 -18l-154 -127q-18 -14 -29.5 -15t-25.5 12l-24 21q-14 13 -16.5 24.5t15.5 27.5z" />
<glyph unicode="&#x2044;" horiz-adv-x="150" d="M193 636q7 11 14.5 15.5t24.5 4.5h59q23 0 28 -7t-5 -24l-374 -614q-7 -11 -14.5 -15.5t-24.5 -4.5h-65q-17 0 -22 7.5t5 23.5z" />
<glyph unicode="&#x20ac;" d="M357 656q47 0 92 -12.5t80 -32.5q8 -5 10 -11t-3 -18l-28 -58q-8 -19 -26 -8q-24 14 -57.5 25t-70.5 11q-25 0 -44 -6.5t-35 -22.5q-14 -14 -21.5 -35.5t-11.5 -52.5h178q20 0 23.5 -7.5t3.5 -29.5v-19q0 -21 -3.5 -28t-23.5 -7h-183v-61h183q20 0 23.5 -7.5t3.5 -29.5 v-17q0 -21 -3.5 -28t-23.5 -7h-174q7 -40 26 -62q15 -18 39 -27.5t66 -9.5q31 0 61.5 6.5t56.5 17.5q11 5 15.5 0.5t7.5 -17.5l11 -48q3 -14 2 -21t-12 -12q-15 -7 -34 -12.5t-39 -9.5t-40 -6t-37 -2q-70 0 -116 13t-78 45q-48 46 -61 145h-62q-20 0 -23.5 7t-3.5 28v17 q0 22 3.5 29.5t23.5 7.5h57v60v1h-57q-20 0 -23.5 7t-3.5 28v19q0 22 3.5 29.5t23.5 7.5h61q7 63 26 103.5t57 70.5q60 47 161 47z" />
<glyph unicode="&#x2113;" horiz-adv-x="459" d="M234 320q43 35 61 76.5t18 89.5q0 37 -9 52t-29 15q-19 0 -30 -15t-11 -59v-159zM234 150q0 -32 11 -45t34 -13q19 0 45 14t51 34q17 14 29 -4l30 -45q6 -9 5 -15t-11 -14q-40 -34 -84 -52.5t-95 -18.5q-141 0 -141 136v22q-11 -7 -25 -14t-25 -12q-20 -8 -28 13l-21 50 q-5 11 -0.5 17.5t15.5 11.5q20 9 42 20t42 23v214q0 96 40 138t131 42q75 0 117.5 -44t42.5 -119q0 -38 -10.5 -75t-35 -73t-63.5 -70.5t-96 -67.5v-53z" />
<glyph unicode="&#x2116;" horiz-adv-x="938" d="M880 81q9 0 12 -4t3 -11v-53q0 -10 -5 -11.5t-10 -1.5h-227q-9 0 -12 3.5t-3 11.5v51q0 7 3 11t12 4h227zM68 622q0 16 5 20.5t22 4.5h60q20 0 30 -5t19 -19l249 -412h4v411q0 16 5 20.5t22 4.5h63q17 0 22 -4.5t5 -20.5v-597q0 -16 -5 -20.5t-22 -4.5h-60q-20 0 -30 5 t-19 19l-249 403h-4v-402q0 -16 -5 -20.5t-22 -4.5h-63q-17 0 -22 4.5t-5 20.5v597zM718 280q0 -48 11 -65t37 -17t36.5 17t10.5 65v6q0 48 -10.5 65.5t-36.5 17.5t-37 -17.5t-11 -65.5v-6zM900 272q0 -78 -31 -113.5t-103 -35.5t-103 35.5t-31 113.5v24q0 79 31 113.5 t103 34.5t103 -34.5t31 -113.5v-24z" />
<glyph unicode="&#x2122;" horiz-adv-x="759" d="M279 654q12 0 16.5 -4.5t4.5 -16.5v-32q0 -12 -4.5 -16.5t-18.5 -4.5h-62v-218q0 -21 -28 -21h-38q-15 0 -21 5t-6 16v218h-61q-14 0 -18.5 4.5t-4.5 16.5v32q0 12 4.5 16.5t16.5 4.5h220zM492 372q-17 0 -24 4.5t-10 15.5q-4 16 -9 37t-10.5 44.5t-10.5 47t-9 44.5h-3 q-2 -51 -3 -100t-1 -103q0 -21 -27 -21h-42q-26 0 -26 21q2 75 6 143.5t9 121.5q2 17 8 22t21 5h85q20 0 26.5 -5.5t8.5 -18.5l16 -80t18 -87h3q10 42 18.5 87t15.5 80q2 13 8 18.5t26 5.5h83q17 0 23 -5t8 -22q5 -53 8 -121.5t5 -143.5q0 -21 -26 -21h-39q-27 0 -27 21 q0 54 -1 103t-3 100h-3q-4 -21 -9 -44.5t-10.5 -47t-10.5 -44.5t-9 -37q-3 -11 -9.5 -15.5t-25.5 -4.5h-48z" />
<glyph unicode="&#x212e;" horiz-adv-x="820" d="M181 316q-5 0 -5 -5v-182q0 -10 9 -21q42 -45 100.5 -71t126.5 -26q72 0 133.5 29.5t103.5 79.5h54q-51 -58 -126.5 -93.5t-165.5 -35.5q-77 0 -144.5 26t-117.5 71t-79.5 105.5t-29.5 129.5t29.5 130t79.5 106t117.5 71t144.5 26q76 0 143 -26t117.5 -71t79.5 -106 t29 -130v-7h-599zM644 521q0 12 -10 22q-42 43 -99 68t-123 25q-68 0 -126 -25.5t-100 -70.5q-10 -8 -10 -23v-179q0 -5 5 -5h458q5 0 5 5v183z" />
<glyph unicode="&#x2190;" horiz-adv-x="629" d="M57 231q-10 9 -13.5 16t-3.5 14t3.5 12.5t13.5 16.5l164 165q13 15 25 15q9 0 19 -10l23 -23q13 -13 13 -23t-13 -23l-83 -83h345q20 0 27 -7.5t7 -29.5v-23q0 -21 -6 -28t-28 -7h-345l81 -81q15 -15 15 -26q0 -10 -11 -21l-21 -22q-11 -11 -21 -11q-12 0 -25 13z" />
<glyph unicode="&#x2191;" horiz-adv-x="629" d="M510 350q13 -13 13 -25q0 -10 -11 -21l-22 -21q-11 -11 -21 -11q-11 0 -26 15l-81 81v-345q0 -22 -7 -28t-28 -6h-23q-22 0 -29.5 7t-7.5 27v345l-83 -83q-13 -13 -23 -13t-23 13l-23 23q-10 10 -10 19q0 11 15 25l165 164q11 10 16.5 13.5t12.5 3.5t13.5 -3.5 t16.5 -13.5z" />
<glyph unicode="&#x2192;" horiz-adv-x="629" d="M401 65q-13 -13 -25 -13q-10 0 -21 11l-21 22q-11 11 -11 21q0 11 15 26l81 81h-345q-22 0 -28 7t-6 28v23q0 22 7 29.5t27 7.5h345l-83 83q-13 13 -13 23t13 23l23 23q10 10 19 10q11 0 25 -15l164 -165q10 -11 13.5 -16.5t3.5 -12.5t-3.5 -14t-13.5 -16z" />
<glyph unicode="&#x2193;" horiz-adv-x="629" d="M344 6q-10 -10 -16.5 -13.5t-13.5 -3.5t-12.5 3.5t-16.5 13.5l-165 164q-15 13 -15 25q0 9 10 19l23 23q13 13 23 13t23 -13l83 -83v345q0 20 7.5 27t29.5 7h23q21 0 28 -6t7 -28v-345l81 81q15 15 26 15q10 0 21 -11l22 -21q11 -11 11 -21q0 -12 -13 -25z" />
<glyph unicode="&#x2202;" horiz-adv-x="532" d="M253 328q-55 0 -77 -30q-11 -14 -15 -33.5t-4 -45.5v-18q0 -26 5.5 -47t16.5 -35q25 -30 75 -30q29 0 50 11t32 32q11 20 17 64t6 101q-21 15 -46 23t-60 8zM94 636q32 14 76 24t82 10q52 0 97 -13.5t80 -56.5q58 -72 58 -257v-20q0 -98 -14 -161t-46 -104 q-25 -32 -70.5 -49.5t-108.5 -17.5q-48 0 -90 12.5t-69 40.5q-24 24 -40 64.5t-16 92.5v21q0 49 14.5 89t40.5 66q25 25 61 39t87 14q35 0 67.5 -7.5t53.5 -20.5q-1 42 -7 76t-23 53q-17 20 -38.5 28.5t-50.5 8.5q-26 0 -54.5 -7t-51.5 -18q-14 -6 -19.5 -3t-10.5 14l-18 51 q-5 12 -3 19t13 12z" />
<glyph unicode="&#x220f;" horiz-adv-x="619" d="M581 647q15 0 20 -5t5 -19v-58q0 -14 -5.5 -19t-19.5 -5h-69v-608q0 -17 -6 -23t-23 -6h-68q-17 0 -23 6t-6 23v608h-153v-608q0 -17 -6 -23t-23 -6h-68q-17 0 -23 6t-6 23v608h-69q-17 0 -21 5t-4 19v58q0 14 5 19t20 5h543z" />
<glyph unicode="&#x2211;" horiz-adv-x="487" d="M433 7q17 0 22 -5t5 -19v-55q0 -14 -5 -19t-22 -5h-397q-18 0 -26 6t-8 24v32q0 9 3.5 18t13.5 20l220 232q14 16 23 24.5t9 16.5t-8.5 16.5l-23.5 23.5l-207 207q-8 8 -11 14t-3 18v74q0 17 21 17h397q17 0 22 -5t5 -19v-58q0 -14 -5 -19t-22 -5h-269l217 -213 q9 -9 11.5 -16.5t2.5 -16.5v-16q0 -11 -2.5 -20t-9.5 -16l-224 -236h271z" />
<glyph unicode="&#x2212;" d="M68 204q-26 0 -31 9.5t-5 27.5v36q0 17 5 27t31 10h404q25 0 30.5 -10t5.5 -27v-38q0 -26 -12 -30.5t-24 -4.5h-404z" />
<glyph unicode="&#x221a;" horiz-adv-x="616" d="M8 480q0 20 22 20h136q26 0 32 -22q26 -106 50 -194t50 -169h5q26 71 50 142t45.5 138.5t40.5 129.5t35 116q3 9 7 12t15 3h98q19 0 12 -18q-18 -62 -41.5 -134.5t-51 -151t-58 -160.5t-63.5 -163q-11 -29 -41 -29h-104q-17 0 -25 6.5t-13 22.5q-31 88 -61.5 184 t-57.5 184h-60q-22 0 -22 20v63z" />
<glyph unicode="&#x221e;" horiz-adv-x="813" d="M401 240q-43 -54 -89 -78.5t-98 -24.5q-38 0 -71 12t-58.5 35.5t-40 58.5t-14.5 81q0 41 14 74t38.5 56.5t57.5 36t71 12.5q28 0 52.5 -5.5t48 -18t47 -33t49.5 -50.5q44 55 87.5 81t105.5 26q38 0 71 -12.5t58 -35.5t39 -56t14 -75q0 -40 -12.5 -74.5t-36 -59.5t-58 -39 t-78.5 -14q-26 0 -50 5t-47.5 17t-48 32t-51.5 49zM333 313q-30 36 -54 61.5t-55 25.5q-33 0 -52.5 -21t-19.5 -58q0 -38 20.5 -60t52.5 -22q31 0 56 21.5t52 52.5zM476 313q30 -33 53.5 -53.5t54.5 -20.5q32 0 52.5 22t20.5 60q0 37 -19.5 58t-52.5 21q-32 0 -56.5 -26 t-52.5 -61z" />
<glyph unicode="&#x222b;" horiz-adv-x="358" d="M267 47q0 -152 -151 -152q-28 0 -50 2.5t-35 6.5q-11 3 -14 8t-1 16l9 53q2 11 7 13.5t15 0.5q8 -2 19.5 -3.5t23.5 -1.5q34 0 44 12t10 47q0 13 -1 26t-3 26q-10 76 -21 150.5t-23 148.5q-4 21 -6 48t-2 59q0 33 8.5 60t26.5 47t47 31t70 11q28 0 52 -3.5t40 -8.5 q18 -5 15 -24l-9 -54q-3 -21 -23 -14q-9 3 -21 5t-24 2q-28 0 -44 -14.5t-16 -51.5q0 -20 3 -42t5 -39q10 -75 22 -147.5t24 -157.5q3 -20 3 -60z" />
<glyph unicode="&#x2248;" d="M237 329q-29 14 -53 14q-18 0 -31 -9.5t-27 -30.5q-8 -12 -15.5 -11.5t-21.5 7.5l-47 26q-14 8 -16.5 15t3.5 18q59 108 144 108q26 0 45 -6t49 -20l32 -15q20 -10 33 -15.5t27 -5.5q15 0 28.5 13.5t27.5 37.5q5 10 12.5 10.5t18.5 -4.5l51 -26q14 -7 16 -13.5t-4 -19.5 q-31 -65 -64.5 -90.5t-69.5 -25.5q-49 0 -102 26zM237 106q-29 14 -53 14q-18 0 -31 -9.5t-27 -30.5q-8 -12 -15.5 -11.5t-21.5 7.5l-47 26q-14 8 -16.5 15t3.5 18q59 108 144 108q26 0 45 -6t49 -20l32 -15q20 -10 33 -15.5t27 -5.5q15 0 28.5 13.5t27.5 37.5 q5 10 12.5 10.5t18.5 -4.5l51 -26q14 -7 16 -13.5t-4 -19.5q-31 -65 -64.5 -90.5t-69.5 -25.5q-49 0 -102 26z" />
<glyph unicode="&#x2260;" d="M385 424h87q25 0 30.5 -10t5.5 -27v-38q0 -26 -12 -30.5t-24 -4.5h-125l-38 -110h163q25 0 30.5 -10t5.5 -27v-38q0 -26 -12 -30.5t-24 -4.5h-202l-30 -87q-6 -18 -16.5 -23.5t-30.5 -5.5h-44q-23 0 -31 7.5t0 28.5l28 80h-78q-26 0 -31 9.5t-5 27.5v36q0 17 5 27t31 10 h116l38 110h-154q-26 0 -31 9.5t-5 27.5v36q0 17 5 27t31 10h193l33 95q6 18 17 23.5t30 5.5h36q26 0 37 -5t2 -31z" />
<glyph unicode="&#x2264;" d="M66 0q-26 0 -31 9.5t-5 27.5v36q0 17 5 27t31 10h404q25 0 30.5 -10t5.5 -27v-38q0 -26 -12 -30.5t-24 -4.5h-404zM36 406q0 11 3.5 18t14.5 12l352 169q14 7 20 5.5t14 -14.5l28 -49q8 -14 6 -22t-19 -16l-248 -115l241 -112q16 -8 22 -17.5t-2 -23.5l-28 -49 q-6 -10 -10.5 -14.5t-23.5 5.5l-352 168q-11 5 -14.5 12t-3.5 18v25z" />
<glyph unicode="&#x2265;" d="M70 0q-12 0 -24 4.5t-12 30.5v38q0 17 5.5 27t30.5 10h404q26 0 31 -10t5 -27v-36q0 -18 -5 -27.5t-31 -9.5h-404zM504 378q0 -11 -3.5 -18t-14.5 -12l-347 -166q-20 -10 -26 -7t-14 16l-28 49q-8 13 -3 21t21 16l244 114l-248 115q-17 8 -19 16t6 22l28 49q8 13 14 14.5 t20 -5.5l352 -169q11 -5 14.5 -12t3.5 -18v-25z" />
<glyph unicode="&#x25ca;" d="M383 324l-113 193l-113 -193l113 -192zM488 369q5 -9 8.5 -16.5t3.5 -17.5v-12q0 -10 -3.5 -17.5t-8.5 -16.5l-162 -274q-8 -14 -17.5 -19t-24.5 -5h-31q-12 0 -21.5 5t-17.5 19l-162 274q-5 9 -8.5 16.5t-3.5 17.5v12q0 10 3.5 17.5t8.5 16.5l162 270q8 14 17.5 19 t21.5 5h31q15 0 24.5 -5t17.5 -19z" />
<glyph unicode="&#x2713;" horiz-adv-x="758" d="M285 11q-10 -9 -16.5 -14.5t-14.5 -5.5t-14 4.5t-17 15.5l-160 160q-15 15 -15 24t16 25l16 16q17 17 27 17q9 0 24 -15l123 -124l370 371q14 14 24 14q6 0 11.5 -3.5t15.5 -12.5l16 -16q15 -15 15 -25t-14 -24z" />
<glyph unicode="&#xe000;" horiz-adv-x="490" d="M0 490h490v-490h-490v490z" />
<glyph unicode="&#xf8ff;" horiz-adv-x="583" d="M228 199v64h193v63h-193v192h255v-64h-191v-64h191v-191h-255zM164 583v-519h72v-64h-136v647h383v-64h-319z" />
<glyph horiz-adv-x="370" d="M299 772q8 -5 9 -11.5t-5 -18.5l-18 -31q-5 -10 -14 -13.5t-21 2.5l-170 71q-14 7 -16.5 13.5t4.5 19.5l29 53q6 11 12.5 13t18.5 -5z" />
<glyph horiz-adv-x="370" d="M242 865q12 7 18.5 5t12.5 -13l29 -53q7 -13 4.5 -20t-16.5 -13l-170 -71q-13 -5 -21.5 -1.5t-13.5 12.5l-18 31q-7 11 -5.5 18t9.5 12z" />
<glyph horiz-adv-x="370" d="M108 847q25 0 40 -13t15 -36v-24q0 -25 -15 -37t-40 -12h-10q-24 0 -38.5 12t-14.5 37v24q0 23 14.5 36t38.5 13h10zM271 847q26 0 40 -13t14 -36v-24q0 -25 -14 -37t-40 -12h-9q-24 0 -38.5 12t-14.5 37v24q0 23 14.5 36t38.5 13h9z" />
<glyph horiz-adv-x="370" d="M330 761q8 -8 6 -16t-8 -13l-28 -21q-8 -7 -16 -7t-18 9l-81 78h-3l-78 -78q-9 -10 -17.5 -9.5t-16.5 7.5l-28 21q-6 5 -8 13t6 16l91 109q6 8 12 9.5t13 1.5h57q6 0 12 -1.5t13 -9.5z" />
<glyph horiz-adv-x="370" d="M28 730q-8 5 -9.5 11.5t3.5 17.5q38 84 102 84q20 0 33.5 -5t27.5 -14l27 -17q11 -7 19 -10.5t16 -3.5q10 0 20.5 8t22.5 27q5 8 12.5 8t15.5 -5l22 -15q9 -6 10.5 -12t-3.5 -17q-22 -39 -49.5 -59t-56.5 -20q-17 0 -31.5 5t-28.5 14l-27 18q-9 6 -15.5 9t-14.5 3 q-9 0 -19.5 -7.5t-23.5 -28.5q-6 -10 -12 -11t-16 5z" />
<glyph horiz-adv-x="370" d="M293 814q15 0 19.5 -6.5t4.5 -17.5v-37q0 -17 -8 -19.5t-16 -2.5h-216q-14 0 -19 6t-5 18v35q0 11 5 17.5t19 6.5h216z" />
<glyph horiz-adv-x="370" d="M185 706q-58 0 -97.5 30t-55.5 84q-4 11 -1.5 16t15.5 10l35 12q10 3 16.5 2t11.5 -14q14 -32 32.5 -46t43.5 -14t43.5 14t32.5 46q5 13 11.5 14t16.5 -2l35 -12q13 -5 15.5 -10t-1.5 -16q-16 -54 -55.5 -84t-97.5 -30z" />
<glyph horiz-adv-x="370" d="M118 794q0 27 19.5 47t47.5 20t47.5 -20t19.5 -47q0 -29 -19.5 -48.5t-47.5 -19.5t-47.5 19.5t-19.5 48.5z" />
<glyph horiz-adv-x="370" d="M77 774q0 41 28 69t69 28q42 0 69.5 -28t27.5 -69q0 -42 -27.5 -69.5t-69.5 -27.5q-41 0 -69 27.5t-28 69.5zM142 774q0 -14 9 -23.5t23 -9.5t23.5 9.5t9.5 23.5t-9.5 23t-23.5 9t-23 -9t-9 -23z" />
<glyph horiz-adv-x="370" d="M169 887q17 15 33 -4l39 -46q9 -11 7.5 -17.5t-13.5 -15.5l-143 -109q-22 -13 -39 5l-22 26q-15 19 -2 32zM374 887q10 9 17.5 7.5t15.5 -11.5l39 -46q9 -11 8 -17t-14 -16l-143 -109q-11 -8 -21 -6t-18 11l-22 26q-15 19 -2 32z" />
<glyph horiz-adv-x="370" d="M238 722q-7 -8 -13 -9.5t-12 -1.5h-57q-7 0 -13 1.5t-12 9.5l-91 109q-8 8 -6 16t8 13l28 21q8 7 16.5 7.5t17.5 -9.5l78 -78h3l81 78q10 9 18 9t16 -7l28 -21q6 -5 8 -13t-6 -16z" />
<glyph horiz-adv-x="645" d="M517 67q0 -20 -5 -28.5t-22 -15.5q-31 -13 -82.5 -22.5t-114.5 -9.5q-66 0 -112 11t-75 37t-41.5 60.5t-12.5 75.5v16q0 58 26.5 97.5t81.5 56.5q-48 17 -69.5 54.5t-21.5 88.5v11q0 41 16.5 71.5t43.5 49.5q24 17 61.5 26.5t91.5 9.5q43 0 85.5 -6t76.5 -17 q13 -5 16 -10t-1 -17l-17 -57q-3 -11 -8.5 -13t-19.5 3q-21 7 -52.5 13t-59.5 6q-31 0 -49 -3.5t-32 -11.5q-13 -8 -19.5 -23.5t-6.5 -34.5v-7q0 -21 5.5 -36t16.5 -27q14 -16 33 -21.5t54 -5.5h290q15 0 15 -13v-71q0 -15 -15 -15h-77v-222zM400 289h-93q-41 0 -62 -4.5 t-37 -17.5q-16 -12 -22.5 -29.5t-6.5 -43.5v-8q0 -49 25 -71q29 -26 97 -26q22 0 48 2.5t51 8.5v189z" />
<glyph horiz-adv-x="758" d="M0 0z" />
</font>
</defs>
</svg>
